  0
SECTION
  2
HEADER
  9
$ACADVER
  1
AC1009
  9
$INSBASE
 10
0.0
 20
0.0
 30
0.0
  9
$EXTMIN
 10
708.16607820572722
 20
106.88072363777439
 30
-0.000000000000013
  9
$EXTMAX
 10
746.11588548052964
 20
184.40997844215781
 30
0.0000000000000023
  9
$LIMMIN
 10
0.0
 20
0.0
  9
$LIMMAX
 10
12.0
 20
9.0
  9
$ORTHOMODE
 70
     0
  9
$REGENMODE
 70
     1
  9
$FILLMODE
 70
     1
  9
$QTEXTMODE
 70
     0
  9
$MIRRTEXT
 70
     0
  9
$DRAGMODE
 70
     2
  9
$LTSCALE
 40
1.0
  9
$OSMODE
 70
  3071
  9
$ATTMODE
 70
     1
  9
$TEXTSIZE
 40
0.2
  9
$TRACEWID
 40
0.05
  9
$TEXTSTYLE
  7
STANDARD
  9
$CLAYER
  8
标注
  9
$CELTYPE
  6
BYLAYER
  9
$CECOLOR
 62
   256
  9
$DIMSCALE
 40
1.0
  9
$DIMASZ
 40
0.65
  9
$DIMEXO
 40
0.88
  9
$DIMDLI
 40
0.015
  9
$DIMRND
 40
0.0
  9
$DIMDLE
 40
0.0
  9
$DIMEXE
 40
0.32
  9
$DIMTP
 40
0.0
  9
$DIMTM
 40
0.0
  9
$DIMTXT
 40
0.65
  9
$DIMCEN
 40
0.09
  9
$DIMTSZ
 40
0.0
  9
$DIMTOL
 70
     0
  9
$DIMLIM
 70
     0
  9
$DIMTIH
 70
     0
  9
$DIMTOH
 70
     0
  9
$DIMSE1
 70
     0
  9
$DIMSE2
 70
     0
  9
$DIMTAD
 70
     0
  9
$DIMZIN
 70
     8
  9
$DIMBLK
  1

  9
$DIMASO
 70
     1
  9
$DIMSHO
 70
     1
  9
$DIMPOST
  1
"
  9
$DIMAPOST
  1
"
  9
$DIMALT
 70
     0
  9
$DIMALTD
 70
     1
  9
$DIMALTF
 40
0.03937
  9
$DIMLFAC
 40
1.0
  9
$DIMTOFL
 70
     1
  9
$DIMTVP
 40
0.0
  9
$DIMTIX
 70
     0
  9
$DIMSOXD
 70
     0
  9
$DIMSAH
 70
     0
  9
$DIMBLK1
  1

  9
$DIMBLK2
  1

  9
$DIMSTYLE
  2
副本STANDARD
  9
$DIMCLRD
 70
   256
  9
$DIMCLRE
 70
   256
  9
$DIMCLRT
 70
   256
  9
$DIMTFAC
 40
1.0
  9
$DIMGAP
 40
0.2
  9
$LUNITS
 70
     2
  9
$LUPREC
 70
     4
  9
$SKETCHINC
 40
0.1
  9
$FILLETRAD
 40
0.0
  9
$AUNITS
 70
     0
  9
$AUPREC
 70
     0
  9
$MENU
  1
.
  9
$ELEVATION
 40
0.0
  9
$PELEVATION
 40
0.0
  9
$THICKNESS
 40
0.0
  9
$LIMCHECK
 70
     0
  9
$BLIPMODE
 70
     0
  9
$CHAMFERA
 40
0.0
  9
$CHAMFERB
 40
0.0
  9
$SKPOLY
 70
     0
  9
$TDCREATE
 40
2455434.724808658
  9
$TDUPDATE
 40
2457409.6163987159
  9
$TDINDWG
 40
0.3105196065
  9
$TDUSRTIMER
 40
0.3105028356
  9
$USRTIMER
 70
     1
  9
$ANGBASE
 50
0.0
  9
$ANGDIR
 70
     0
  9
$PDMODE
 70
     0
  9
$PDSIZE
 40
0.0
  9
$PLINEWID
 40
0.0
  9
$COORDS
 70
     0
  9
$SPLFRAME
 70
     0
  9
$SPLINETYPE
 70
     6
  9
$SPLINESEGS
 70
     8
  9
$ATTDIA
 70
     1
  9
$ATTREQ
 70
     1
  9
$HANDLING
 70
     1
  9
$HANDSEED
  5
474B
  9
$SURFTAB1
 70
     6
  9
$SURFTAB2
 70
     6
  9
$SURFTYPE
 70
     6
  9
$SURFU
 70
     6
  9
$SURFV
 70
     6
  9
$UCSNAME
  2

  9
$UCSORG
 10
0.0
 20
0.0
 30
0.0
  9
$UCSXDIR
 10
1.0
 20
0.0
 30
0.0
  9
$UCSYDIR
 10
0.0
 20
1.0
 30
0.0
  9
$PUCSNAME
  2

  9
$PUCSORG
 10
0.0
 20
0.0
 30
0.0
  9
$PUCSXDIR
 10
1.0
 20
0.0
 30
0.0
  9
$PUCSYDIR
 10
0.0
 20
1.0
 30
0.0
  9
$USERI1
 70
     0
  9
$USERI2
 70
     0
  9
$USERI3
 70
     0
  9
$USERI4
 70
     0
  9
$USERI5
 70
     0
  9
$USERR1
 40
0.0
  9
$USERR2
 40
0.0
  9
$USERR3
 40
0.0
  9
$USERR4
 40
0.0
  9
$USERR5
 40
2.5
  9
$WORLDVIEW
 70
     1
  9
$SHADEDGE
 70
     3
  9
$SHADEDIF
 70
    70
  9
$TILEMODE
 70
     1
  9
$MAXACTVP
 70
    64
  9
$PLIMCHECK
 70
     0
  9
$PEXTMIN
 10
1.0000000000000000E+020
 20
1.0000000000000000E+020
 30
1.0000000000000000E+020
  9
$PEXTMAX
 10
-1.0000000000000000E+020
 20
-1.0000000000000000E+020
 30
-1.0000000000000000E+020
  9
$PLIMMIN
 10
0.0
 20
0.0
  9
$PLIMMAX
 10
12.0
 20
9.0
  9
$UNITMODE
 70
     0
  9
$VISRETAIN
 70
     1
  9
$PLINEGEN
 70
     0
  9
$PSLTSCALE
 70
     1
  0
ENDSEC
  0
SECTION
  2
TABLES
  0
TABLE
  2
VPORT
 70
     1
  0
VPORT
  2
*ACTIVE
 70
     0
 10
0.0
 20
0.0
 11
1.0
 21
1.0
 12
657.35962966052693
 22
129.9021230442473
 13
0.0
 23
0.0
 14
0.5
 24
0.5
 15
0.5
 25
0.5
 16
0.0
 26
0.0
 36
1.0
 17
0.0
 27
0.0
 37
0.0
 40
238.10265620748061
 41
1.4909326424870459
 42
50.0
 43
0.0
 44
0.0
 50
0.0
 51
0.0
 71
     0
 72
  1000
 73
     1
 74
     3
 75
     0
 76
     0
 77
     0
 78
     0
  0
ENDTAB
  0
TABLE
  2
LTYPE
 70
    19
  0
LTYPE
  2
CONTINUOUS
 70
     0
  3
Solid line
 72
    65
 73
     0
 40
0.0
  0
LTYPE
  2
CENTER2
 70
     0
  3
Center (.5x) ___ _ ___ _ ___ _ ___ _ ___ _ ___
 72
    65
 73
     4
 40
28.574999999999999
 49
19.050000000000001
 49
-3.174999999999998
 49
3.174999999999998
 49
-3.174999999999998
  0
LTYPE
  2
HIDDEN2
 70
     0
  3
Hidden (.5x) _ _ _ _ _ _ _ _ _ _ _ _ _ _ _ _ _
 72
    65
 73
     2
 40
4.7624999999999984
 49
3.174999999999998
 49
-1.587499999999999
  0
LTYPE
  2
HIDDEN
 70
     0
  3
Hidden __ __ __ __ __ __ __ __ __ __ __ __ __ _
 72
    65
 73
     2
 40
0.375
 49
0.25
 49
-0.125
  0
LTYPE
  2
PHANTOM2
 70
     0
  3
Phantom (.5x) ___ _ _ ___ _ _ ___ _ _ ___ _ _
 72
    65
 73
     6
 40
1.25
 49
0.625
 49
-0.125
 49
0.125
 49
-0.125
 49
0.125
 49
-0.125
  0
LTYPE
  2
CENTER
 70
     0
  3
Center ____ _ ____ _ ____ _ ____ _ ____ _ ____
 72
    65
 73
     4
 40
2.0
 49
1.25
 49
-0.25
 49
0.25
 49
-0.25
  0
LTYPE
  2
AM_ISO02W050
 70
     0
  3
__ __ __ __ __ __ __ __ __ __ __ __ __ __ __
 72
    65
 73
     2
 40
7.5
 49
6.0
 49
-1.5
  0
LTYPE
  2
AM_ISO08W050
 70
     0
  3
____ . ____ . ____ . ____ . ____ . ____ . ____
 72
    65
 73
     4
 40
18.0
 49
12.0
 49
-1.5
 49
3.0
 49
-1.5
  0
LTYPE
  2
AM_ISO09W050
 70
     0
  3
_____ . . _____ . . _____ . . ____ .. ____
 72
    65
 73
     6
 40
22.5
 49
12.0
 49
-1.5
 49
3.0
 49
-1.5
 49
3.0
 49
-1.5
  0
LTYPE
  2
AMCONSTR
 70
     0
  3
_______________________
 72
    65
 73
     2
 40
9999.0
 49
9999.0
 49
0.0
  0
LTYPE
  2
AM_ISO08W050X2
 70
     0
  3
__ . __ . __ . __ . __ . __
 72
    65
 73
     4
 40
9.0
 49
6.0
 49
-0.75
 49
1.5
 49
-0.75
  0
LTYPE
  2
AM_ISO02W050X2
 70
     0
  3
 _ _ _ _ _ _ _ _ _ _ _ _
 72
    65
 73
     2
 40
3.75
 49
3.0
 49
-0.75
  0
LTYPE
  2
AMZIGZAG
 70
     0
  3
/\/-/\/-/\/-/\/-/\/-/\/
 72
    65
 73
     2
 40
11.0001
 49
0.0001
 49
-11.0
  0
LTYPE
  2
AMZIGZAG2
 70
     0
  3
/\/-/\/-/\/-/\/-/\/-/\/
 72
    65
 73
     2
 40
0.4401
 49
0.0001
 49
-0.4400000000000003
  0
LTYPE
  2
ACANSTGB
 70
     0
  3
__ . . __ . .
 72
    65
 73
     6
 40
0.35433070866
 49
0.15748031496
 49
-0.03937007874
 49
0.03937007874
 49
-0.03937007874
 49
0.03937007874
 49
-0.03937007874
  0
LTYPE
  2
ACANSTGL
 70
     0
  3
_ _ _ _ _
 72
    65
 73
     2
 40
0.11811023622
 49
0.07874015748
 49
-0.03937007874
  0
LTYPE
  2
ACISOWELD
 70
     0
  3
_ _ _ _ _
 72
    65
 73
     2
 40
2.0
 49
2.0
 49
-1.0
  0
LTYPE
  2
ACISOTGB
 70
     0
  3
__ . . __ . .
 72
    65
 73
     6
 40
9.0
 49
4.0
 49
-1.0
 49
1.0
 49
-1.0
 49
1.0
 49
-1.0
  0
LTYPE
  2
ACISOTGL
 70
     0
  3
_ _ _ _ _
 72
    65
 73
     2
 40
3.0
 49
2.0
 49
-1.0
  0
ENDTAB
  0
TABLE
  2
LAYER
 70
    10
  0
LAYER
  2
0
 70
     0
 62
     7
  6
CONTINUOUS
  0
LAYER
  2
标注
 70
     0
 62
    80
  6
CONTINUOUS
  0
LAYER
  2
中心线
 70
     0
 62
     1
  6
CENTER2
  0
LAYER
  2
虚线
 70
     0
 62
     4
  6
HIDDEN2
  0
LAYER
  2
DEFPOINTS
 70
     0
 62
     7
  6
CONTINUOUS
  0
LAYER
  2
细实线
 70
     0
 62
     7
  6
CONTINUOUS
  0
LAYER
  2
标注线
 70
     0
 62
     3
  6
CONTINUOUS
  0
LAYER
  2
截面层
 70
     0
 62
     6
  6
CONTINUOUS
  0
LAYER
  2
粗实线
 70
     0
 62
     7
  6
CONTINUOUS
  0
LAYER
  2
BIAOZHU
 70
     0
 62
     3
  6
CONTINUOUS
  0
ENDTAB
  0
TABLE
  2
STYLE
 70
     8
  0
STYLE
  2
STANDARD
 70
     0
 40
0.0
 41
1.0
 50
0.0
 71
     0
 42
0.2
  3
txt
  4

  0
STYLE
  2
ANNOTATIVE
 70
     0
 40
0.0
 41
1.0
 50
0.0
 71
     0
 42
0.2
  3
txt
  4

  0
STYLE
  2

 70
     1
 40
0.0
 41
1.0
 50
0.0
 71
     0
 42
0.2
  3
genltshp.shx
  4

  0
STYLE
  2
ACANSGDT
 70
     0
 40
0.0
 41
1.0
 50
0.0
 71
     0
 42
0.2
  3
amgdt.shx
  4

  0
STYLE
  2
ACISOGDT
 70
     0
 40
0.0
 41
1.0
 50
0.0
 71
     0
 42
2.5
  3
amgdt.shx
  4

  0
STYLE
  2
ACANSTS
 70
     0
 40
1.0
 41
1.0
 50
0.0
 71
     0
 42
0.2
  3
romans.shx
  4
gbcbig.shx
  0
STYLE
  2
A35
 70
     0
 40
17.5
 41
1.0
 50
0.0
 71
     0
 42
17.5
  3
txt.shx
  4

  0
ENDTAB
  0
TABLE
  2
VIEW
 70
     0
  0
ENDTAB
  0
TABLE
  2
UCS
 70
     0
  0
ENDTAB
  0
TABLE
  2
APPID
 70
    26
  0
APPID
  2
ACAD
 70
     0
  0
APPID
  2
ACADANNOTATIVE
 70
     0
  0
APPID
  2
ACAECLAYERSTANDARD
 70
     0
  0
APPID
  2
ACAD_DSTYLE_DIMEXT_LENGTH
 70
     0
  0
APPID
  2
ACAD_DSTYLE_DIMEXT_ENABLED
 70
     0
  0
APPID
  2
ACAD_DSTYLE_DIMJOGGED_JOGA
 70
     0
  0
APPID
  2
ACAD_DSTYLE_DIMARC_LENGTH_
 70
     0
  0
APPID
  2
ACAD_PSEXT
 70
     0
  0
APPID
  2
MCAD_NO_VIS
 70
     0
  0
APPID
  2
ACAD_TEMP_GRAPHIC
 70
     0
  0
APPID
  2
AD_DRAW
 70
     0
  0
APPID
  2
ACATTRIBSERVICES
 70
     0
  0
APPID
  2
DESIGNERASSEMBLIES
 70
     0
  0
APPID
  2
ACADM_DIM_EDIT
 70
     0
  0
APPID
  2
AMDT_DM_ADJ
 70
     0
  0
APPID
  2
ACAD_DSTYLE_DIMJAG
 70
     0
  0
APPID
  2
ACAD_DSTYLE_DIMBREAK
 70
     0
  0
APPID
  2
ACAD_DSTYLE_DIMTALN
 70
     0
  0
APPID
  2
GENIUS_GENODEF_13
 70
     0
  0
APPID
  2
GENIUS_GENOBJ-N-FIL_13
 70
     0
  0
APPID
  2
ACAD_EXEMPT_FROM_CAD_STANDARDS
 70
     0
  0
APPID
  2
ACAD_MLEADERVER
 70
     0
  0
APPID
  2
ACAD_DSTYLE_DIM_LINETYPE
 70
     0
  0
APPID
  2
ACAD_DSTYLE_DIM_EXT1_LINETYPE
 70
     0
  0
APPID
  2
ACAD_DSTYLE_DIM_EXT2_LINETYPE
 70
     0
  0
APPID
  2
ACAD_DSTYLE_DIMRADIAL_EXTENSION
 70
     0
  0
ENDTAB
  0
TABLE
  2
DIMSTYLE
 70
    29
  0
DIMSTYLE
  2
STANDARD
 70
     0
  3

  4

  5

  6

  7

 40
1.0
 41
0.18
 42
0.0625
 43
0.38
 44
0.18
 45
0.0
 46
0.0
 47
0.0
 48
0.0
140
0.18
141
0.09
142
0.0
143
25.399999999999999
144
1.0
145
0.0
146
1.0
147
0.09
 71
     0
 72
     0
 73
     1
 74
     1
 75
     0
 76
     0
 77
     0
 78
     0
170
     0
171
     2
172
     0
173
     0
174
     0
175
     0
176
     0
177
     0
178
     0
  0
DIMSTYLE
  2
ANNOTATIVE
 70
     0
  3

  4

  5

  6

  7

 40
1.0
 41
0.18
 42
0.0625
 43
0.38
 44
0.18
 45
0.0
 46
0.0
 47
0.0
 48
0.0
140
0.18
141
0.09
142
0.0
143
25.399999999999999
144
1.0
145
0.0
146
1.0
147
0.09
 71
     0
 72
     0
 73
     1
 74
     1
 75
     0
 76
     0
 77
     0
 78
     0
170
     0
171
     2
172
     0
173
     0
174
     0
175
     0
176
     0
177
     0
178
     0
  0
DIMSTYLE
  2
副本STANDARD
 70
     0
  3
"
  4
"
  5

  6

  7

 40
1.0
 41
0.65
 42
0.88
 43
0.015
 44
0.32
 45
0.0
 46
0.0
 47
0.0
 48
0.0
140
0.65
141
0.09
142
0.0
143
0.03937
144
1.0
145
0.0
146
1.0
147
0.2
 71
     0
 72
     0
 73
     0
 74
     0
 75
     0
 76
     0
 77
     0
 78
     8
170
     0
171
     1
172
     1
173
     0
174
     0
175
     0
176
   256
177
   256
178
   256
  0
DIMSTYLE
  2
AM_ANSI
 70
     0
  3

  4
mm
  5

  6

  7

 40
1.0
 41
0.12
 42
0.05
 43
0.5
 44
0.1
 45
0.0
 46
0.0
 47
0.1
 48
0.1
140
0.12
141
0.0
142
0.0
143
25.399999999999999
144
1.0
145
0.0
146
0.71
147
0.06
 71
     0
 72
     0
 73
     1
 74
     1
 75
     0
 76
     0
 77
     0
 78
     7
170
     0
171
     2
172
     0
173
     0
174
     0
175
     0
176
   256
177
   256
178
     2
  0
DIMSTYLE
  2
AM_ANSI$3
 70
     0
  3

  4
mm
  5

  6

  7

 40
1.0
 41
0.12
 42
0.05
 43
0.5
 44
0.1
 45
0.0
 46
0.0
 47
0.1
 48
0.1
140
0.12
141
0.0
142
0.0
143
25.399999999999999
144
1.0
145
0.0
146
0.71
147
0.06
 71
     0
 72
     0
 73
     1
 74
     1
 75
     0
 76
     0
 77
     0
 78
     7
170
     0
171
     2
172
     0
173
     0
174
     0
175
     0
176
   256
177
   256
178
     2
  0
DIMSTYLE
  2
AM_ANSI$4
 70
     0
  3

  4
mm
  5

  6

  7

 40
1.0
 41
0.12
 42
0.05
 43
0.5
 44
0.1
 45
0.0
 46
0.0
 47
0.1
 48
0.1
140
0.12
141
0.0
142
0.0
143
25.399999999999999
144
1.0
145
0.0
146
0.71
147
0.06
 71
     0
 72
     0
 73
     1
 74
     1
 75
     0
 76
     0
 77
     0
 78
     7
170
     0
171
     2
172
     0
173
     0
174
     0
175
     0
176
   256
177
   256
178
     2
  0
DIMSTYLE
  2
AM_ANSI$7
 70
     0
  3

  4
mm
  5

  6

  7

 40
1.0
 41
0.12
 42
0.05
 43
0.5
 44
0.1
 45
0.0
 46
0.0
 47
0.1
 48
0.1
140
0.12
141
0.0
142
0.0
143
25.399999999999999
144
1.0
145
0.0
146
0.71
147
0.06
 71
     0
 72
     0
 73
     1
 74
     1
 75
     0
 76
     0
 77
     0
 78
     7
170
     0
171
     2
172
     0
173
     0
174
     0
175
     0
176
   256
177
   256
178
     2
  0
DIMSTYLE
  2
AM_ANSI$SF
 70
     0
  3

  4
mm
  5

  6

  7

 40
1.0
 41
0.12
 42
0.05
 43
0.5
 44
0.1
 45
0.0
 46
0.0
 47
0.1
 48
0.1
140
0.12
141
0.0
142
0.0
143
25.399999999999999
144
1.0
145
0.0
146
0.71
147
0.06
 71
     0
 72
     0
 73
     1
 74
     1
 75
     1
 76
     1
 77
     0
 78
     7
170
     0
171
     2
172
     0
173
     0
174
     0
175
     0
176
   256
177
   256
178
     2
  0
DIMSTYLE
  2
AM_ANSI$SH
 70
     0
  3

  4
mm
  5

  6

  7

 40
1.0
 41
0.12
 42
0.05
 43
0.5
 44
0.1
 45
0.0
 46
0.0
 47
0.1
 48
0.1
140
0.12
141
0.0
142
0.0
143
25.399999999999999
144
1.0
145
0.0
146
0.71
147
0.06
 71
     0
 72
     0
 73
     1
 74
     1
 75
     1
 76
     1
 77
     0
 78
     7
170
     0
171
     2
172
     0
173
     1
174
     0
175
     0
176
   256
177
   256
178
     2
  0
DIMSTYLE
  2
AM_ISO
 70
     0
  3

  4
"
  5

  6

  7

 40
1.0
 41
3.5
 42
1.0
 43
10.0
 44
1.0
 45
0.0
 46
0.0
 47
0.1
 48
0.1
140
3.5
141
0.0
142
0.0
143
0.0393701
144
1.0
145
0.0
146
0.71
147
1.5
 71
     0
 72
     0
 73
     0
 74
     0
 75
     0
 76
     0
 77
     1
 78
     8
170
     0
171
     2
172
     1
173
     0
174
     0
175
     0
176
   256
177
   256
178
     2
  0
DIMSTYLE
  2
AM_ISO$3
 70
     0
  3

  4
"
  5

  6

  7

 40
1.0
 41
3.5
 42
1.0
 43
10.0
 44
1.0
 45
0.0
 46
0.0
 47
0.1
 48
0.1
140
3.5
141
0.0
142
0.0
143
0.0393701
144
1.0
145
0.0
146
0.71
147
1.5
 71
     0
 72
     0
 73
     0
 74
     1
 75
     0
 76
     0
 77
     1
 78
     8
170
     0
171
     2
172
     0
173
     0
174
     0
175
     0
176
   256
177
   256
178
     2
  0
DIMSTYLE
  2
AM_ISO$4
 70
     0
  3

  4
"
  5

  6

  7

 40
1.0
 41
3.5
 42
1.0
 43
10.0
 44
1.0
 45
0.0
 46
0.0
 47
0.1
 48
0.1
140
3.5
141
0.0
142
0.0
143
0.0393701
144
1.0
145
0.0
146
0.71
147
1.5
 71
     0
 72
     0
 73
     0
 74
     1
 75
     0
 76
     0
 77
     1
 78
     8
170
     0
171
     2
172
     0
173
     0
174
     0
175
     0
176
   256
177
   256
178
     2
  0
DIMSTYLE
  2
AM_ISO$6
 70
     0
  3

  4
"
  5

  6

  7

 40
1.0
 41
3.5
 42
1.0
 43
10.0
 44
1.0
 45
0.0
 46
0.0
 47
0.1
 48
0.1
140
3.5
141
0.0
142
0.0
143
0.0393701
144
1.0
145
0.0
146
0.71
147
1.5
 71
     0
 72
     0
 73
     0
 74
     0
 75
     0
 76
     0
 77
     0
 78
     8
170
     0
171
     2
172
     1
173
     0
174
     0
175
     0
176
   256
177
   256
178
     2
  0
DIMSTYLE
  2
AM_ISO$7
 70
     0
  3

  4
"
  5

  6

  7

 40
1.0
 41
3.5
 42
1.0
 43
10.0
 44
1.0
 45
0.0
 46
0.0
 47
0.1
 48
0.1
140
3.5
141
0.0
142
0.0
143
0.0393701
144
1.0
145
0.0
146
0.71
147
1.5
 71
     0
 72
     0
 73
     0
 74
     0
 75
     0
 76
     0
 77
     1
 78
     8
170
     0
171
     2
172
     1
173
     0
174
     0
175
     0
176
   256
177
   256
178
     2
  0
DIMSTYLE
  2
AM_ISO$SF
 70
     0
  3

  4
"
  5

  6

  7

 40
1.0
 41
3.5
 42
1.0
 43
10.0
 44
1.0
 45
0.0
 46
0.0
 47
0.1
 48
0.1
140
3.5
141
0.0
142
0.0
143
0.0393701
144
1.0
145
0.0
146
0.71
147
1.5
 71
     0
 72
     0
 73
     0
 74
     0
 75
     1
 76
     1
 77
     1
 78
     8
170
     0
171
     2
172
     1
173
     0
174
     0
175
     0
176
   256
177
   256
178
     2
  0
DIMSTYLE
  2
AM_ISO$SH
 70
     0
  3

  4
"
  5

  6

  7

 40
1.0
 41
3.5
 42
1.0
 43
10.0
 44
1.0
 45
0.0
 46
0.0
 47
0.1
 48
0.1
140
3.5
141
0.0
142
0.0
143
0.0393701
144
2.0
145
0.0
146
0.71
147
1.5
 71
     0
 72
     0
 73
     0
 74
     0
 75
     1
 76
     1
 77
     1
 78
     8
170
     0
171
     2
172
     1
173
     1
174
     0
175
     0
176
   256
177
   256
178
     2
  0
DIMSTYLE
  2
090319-
 70
     0
  3

  4

  5

  6

  7

 40
1.0
 41
16.0
 42
20.0
 43
1.5
 44
3.0
 45
0.0
 46
0.0
 47
0.0
 48
0.0
140
20.0
141
3.0
142
0.0
143
0.03937007874016
144
1.0
145
0.0
146
1.0
147
7.0
 71
     0
 72
     0
 73
     0
 74
     0
 75
     0
 76
     0
 77
     1
 78
     8
170
     0
171
     3
172
     1
173
     0
174
     0
175
     0
176
     0
177
     0
178
     0
  0
DIMSTYLE
  2
A35
 70
     0
  3

  4

  5

  6

  7

 40
0.0
 41
17.5
 42
9.0
 43
1.0
 44
9.0
 45
0.0
 46
0.0
 47
0.0
 48
0.0
140
17.5
141
0.0
142
0.0
143
25.399999999999999
144
1.0
145
0.0
146
1.0
147
9.0
 71
     0
 72
     0
 73
     0
 74
     0
 75
     0
 76
     0
 77
     1
 78
    12
170
     0
171
     2
172
     1
173
     0
174
     0
175
     0
176
   256
177
   256
178
   256
  0
DIMSTYLE
  2
副本__2_STANDARD
 70
     0
  3

  4
"
  5

  6

  7

 40
1.0
 41
16.0
 42
22.0
 43
0.38
 44
8.0
 45
0.0
 46
0.0
 47
0.0
 48
0.0
140
16.0
141
0.09
142
0.0
143
0.03937
144
1.0
145
0.0
146
1.0
147
5.0
 71
     0
 72
     0
 73
     0
 74
     0
 75
     0
 76
     0
 77
     0
 78
     8
170
     1
171
     1
172
     1
173
     0
174
     0
175
     0
176
     3
177
     3
178
     3
  0
DIMSTYLE
  2
副本__3_STANDARD
 70
     0
  3

  4
"
  5

  6

  7

 40
1.0
 41
16.0
 42
22.0
 43
0.38
 44
8.0
 45
0.0
 46
0.0
 47
0.0
 48
0.0
140
16.0
141
0.0
142
0.0
143
0.03937
144
1.0
145
0.0
146
1.0
147
5.0
 71
     0
 72
     0
 73
     0
 74
     0
 75
     0
 76
     0
 77
     0
 78
     8
170
     0
171
     3
172
     1
173
     0
174
     0
175
     1
176
     3
177
     3
178
     3
  0
DIMSTYLE
  2
XIAO
 70
     0
  3

  4

  5

  6

  7

 40
1.0
 41
3.5
 42
3.0
 43
1.0
 44
1.0
 45
0.0
 46
0.0
 47
0.0
 48
0.0
140
4.0
141
1.5
142
0.0
143
0.03937007874016
144
1.0
145
0.0
146
1.0
147
1.0
 71
     0
 72
     0
 73
     0
 74
     0
 75
     0
 76
     0
 77
     1
 78
     8
170
     0
171
     3
172
     1
173
     0
174
     0
175
     0
176
     0
177
     0
178
     0
  0
DIMSTYLE
  2
副本_STANDARD
 70
     0
  3

  4

  5

  6

  7

 40
1.0
 41
10.0
 42
0.0625
 43
0.38
 44
0.18
 45
0.0
 46
0.0
 47
0.0
 48
0.0
140
25.0
141
0.09
142
0.0
143
25.399999999999999
144
1.0
145
0.0
146
1.0
147
0.09
 71
     0
 72
     0
 73
     0
 74
     0
 75
     0
 76
     0
 77
     1
 78
     0
170
     0
171
     2
172
     0
173
     0
174
     0
175
     0
176
     7
177
     7
178
     0
  0
DIMSTYLE
  2
副本__3__STANDARD
 70
     0
  3

  4

  5

  6

  7

 40
1.0
 41
10.0
 42
0.0625
 43
0.38
 44
0.18
 45
0.0
 46
0.0
 47
0.0
 48
0.0
140
25.0
141
0.09
142
0.0
143
25.399999999999999
144
1.0
145
0.0
146
1.0
147
0.09
 71
     0
 72
     0
 73
     0
 74
     1
 75
     0
 76
     0
 77
     1
 78
     0
170
     0
171
     2
172
     0
173
     0
174
     0
175
     0
176
     7
177
     7
178
     0
  0
DIMSTYLE
  2
ISO-25
 70
     0
  3

  4

  5

  6

  7

 40
1.0
 41
15.0
 42
5.0
 43
3.75
 44
5.0
 45
0.0
 46
0.0
 47
0.0
 48
0.0
140
20.0
141
0.0
142
0.0
143
0.03937007874016
144
1.0
145
0.0
146
1.0
147
2.0
 71
     0
 72
     0
 73
     0
 74
     0
 75
     0
 76
     0
 77
     0
 78
     8
170
     0
171
     4
172
     1
173
     0
174
     0
175
     0
176
     3
177
     3
178
   256
  0
DIMSTYLE
  2
毫米英寸
 70
     0
  3

  4
"
  5

  6

  7

 40
1.0
 41
15.0
 42
5.0
 43
3.75
 44
5.0
 45
0.0
 46
0.0
 47
0.0
 48
0.0
140
20.0
141
0.0
142
0.0
143
0.03937007874016
144
1.0
145
0.0
146
1.0
147
2.0
 71
     0
 72
     0
 73
     0
 74
     0
 75
     0
 76
     0
 77
     0
 78
     8
170
     1
171
     3
172
     1
173
     0
174
     0
175
     0
176
     3
177
     3
178
   256
  0
DIMSTYLE
  2
中10_
 70
     0
  3

  4
"
  5

  6

  7

 40
1.0
 41
12.0
 42
10.0
 43
1.0
 44
2.0
 45
0.0
 46
0.0
 47
0.0
 48
0.0
140
12.0
141
1.5
142
0.0
143
0.03937007874016
144
1.0
145
0.0
146
1.0
147
4.0
 71
     0
 72
     0
 73
     0
 74
     0
 75
     0
 76
     0
 77
     0
 78
     8
170
     1
171
     3
172
     1
173
     0
174
     0
175
     0
176
     0
177
     0
178
     0
  0
DIMSTYLE
  2
中14_
 70
     0
  3

  4
"
  5

  6

  7

 40
1.0
 41
14.0
 42
10.0
 43
1.0
 44
2.0
 45
0.0
 46
0.0
 47
0.0
 48
0.0
140
14.0
141
2.0
142
0.0
143
0.03937007874016
144
1.0
145
0.0
146
1.0
147
5.0
 71
     0
 72
     0
 73
     0
 74
     0
 75
     0
 76
     0
 77
     0
 78
     8
170
     0
171
     3
172
     1
173
     0
174
     0
175
     0
176
     0
177
     0
178
     0
  0
DIMSTYLE
  2
毫米英寸STANDARD
 70
     0
  3

  4
"
  5

  6

  7

 40
1.0
 41
14.0
 42
20.0
 43
0.38
 44
8.0
 45
0.0
 46
0.0
 47
0.0
 48
0.0
140
14.0
141
0.09
142
0.0
143
0.03937
144
1.0
145
0.0
146
1.0
147
8.0
 71
     0
 72
     0
 73
     0
 74
     0
 75
     0
 76
     0
 77
     0
 78
     8
170
     1
171
     3
172
     1
173
     0
174
     0
175
     0
176
   256
177
   256
178
   256
  0
ENDTAB
  0
ENDSEC
  0
SECTION
  2
BLOCKS
  0
BLOCK
  8
0
  2
$MODEL_SPACE
 70
     0
 10
0.0
 20
0.0
 30
0.0
  3
$MODEL_SPACE
  1

  0
ENDBLK
  5
4368
  8
0
  0
BLOCK
 67
     1
  8
0
  2
$PAPER_SPACE
 70
     0
 10
0.0
 20
0.0
 30
0.0
  3
$PAPER_SPACE
  1

  0
ENDBLK
  5
4364
 67
     1
  8
0
  0
BLOCK
  8
0
  2
GENAXEH
 70
     0
 10
0.0
 20
0.0
 30
0.0
  3
GENAXEH
  1

  0
LINE
  5
1722
  8
0
 10
-1.0
 20
0.0
 30
0.0
 11
1.0
 21
0.0
 31
0.0
  0
ENDBLK
  5
1724
  8
0
  0
BLOCK
  8
0
  2
*D3
 70
     1
 10
0.0
 20
0.0
 30
0.0
  3
*D3
  1

  0
LINE
  5
18EA
  8
标注
 10
276.58135583593452
 20
193.6364489045088
 30
0.0
 11
278.10357533348002
 21
193.6364489045088
 31
0.0
  0
LINE
  5
18EB
  8
标注
 10
276.53473933445309
 20
184.6364489045489
 30
0.0
 11
278.10357533348002
 21
184.6364489045489
 31
0.0
  0
LINE
  5
18EC
  8
标注
 10
277.78357533347997
 20
192.9864489045089
 30
0.0
 11
277.78357533347997
 21
189.7697822378621
 31
0.0
  0
LINE
  5
18ED
  8
标注
 10
277.78357533347997
 20
185.28644890454891
 30
0.0
 11
277.78357533347997
 21
188.50311557119559
 31
0.0
  0
SOLID
  5
18EE
  8
标注
 10
277.67524200014662
 20
192.9864489045089
 30
0.0
 11
277.89190866681332
 21
192.9864489045089
 31
0.0
 12
277.78357533347997
 22
193.6364489045088
 32
0.0
 13
277.78357533347997
 23
193.6364489045088
 33
0.0
  0
SOLID
  5
18EF
  8
标注
 10
277.67524200014662
 20
185.28644890454891
 30
0.0
 11
277.89190866681332
 21
185.28644890454891
 31
0.0
 12
277.78357533347997
 22
184.6364489045489
 32
0.0
 13
277.78357533347997
 23
184.6364489045489
 33
0.0
  0
INSERT
  5
18F0
  8
标注
  2
*U4
 10
0.0
 20
0.0
 30
0.0
  0
POINT
  5
18F1
  8
DEFPOINTS
 62
     0
 10
275.70135583593452
 20
193.6364489045088
 30
0.0
  0
POINT
  5
18F2
  8
DEFPOINTS
 62
     0
 10
275.6547393344531
 20
184.6364489045489
 30
0.0
  0
POINT
  5
18F3
  8
DEFPOINTS
 62
     0
 10
277.78357533347997
 20
184.6364489045489
 30
0.0
  0
ENDBLK
  5
18B3
  8
0
  0
BLOCK
  8
0
  2
*U4
 70
     1
 10
0.0
 20
0.0
 30
0.0
  3
*U4
  1

  0
TEXT
  5
414E
  8
标注
 10
278.10857533347991
 20
188.7031155711957
 30
0.0
 40
0.65
  1
9"
 50
90.0
  0
ENDBLK
  5
4150
  8
0
  0
BLOCK
  8
0
  2
*D5
 70
     1
 10
0.0
 20
0.0
 30
0.0
  3
*D5
  1

  0
LINE
  5
1903
  8
标注
 10
246.74859993053769
 20
154.96163985154161
 30
0.0
 11
246.74859993053769
 21
152.32169580177569
 31
0.0
  0
LINE
  5
1904
  8
标注
 10
274.7013558359381
 20
154.91439575705471
 30
0.0
 11
274.7013558359381
 21
152.32169580177569
 31
0.0
  0
LINE
  5
1905
  8
标注
 10
247.39859993053761
 20
152.64169580177571
 30
0.0
 11
259.76664454990458
 21
152.64169580177571
 31
0.0
  0
LINE
  5
1906
  8
标注
 10
274.05135583593812
 20
152.64169580177571
 30
0.0
 11
261.68331121657121
 21
152.64169580177571
 31
0.0
  0
SOLID
  5
1907
  8
标注
 10
247.39859993053761
 20
152.75002913510909
 30
0.0
 11
247.39859993053761
 21
152.53336246844239
 31
0.0
 12
246.74859993053769
 22
152.64169580177571
 32
0.0
 13
246.74859993053769
 23
152.64169580177571
 33
0.0
  0
SOLID
  5
1908
  8
标注
 10
274.05135583593812
 20
152.75002913510909
 30
0.0
 11
274.05135583593812
 21
152.53336246844239
 31
0.0
 12
274.7013558359381
 22
152.64169580177571
 32
0.0
 13
274.7013558359381
 23
152.64169580177571
 33
0.0
  0
INSERT
  5
1909
  8
标注
  2
*U6
 10
0.0
 20
0.0
 30
0.0
  0
POINT
  5
190A
  8
DEFPOINTS
 62
     0
 10
246.74859993053769
 20
155.8416398515416
 30
0.0
  0
POINT
  5
190B
  8
DEFPOINTS
 62
     0
 10
274.7013558359381
 20
155.7943957570547
 30
0.0
  0
POINT
  5
190C
  8
DEFPOINTS
 62
     0
 10
274.7013558359381
 20
152.64169580177571
 30
0.0
  0
ENDBLK
  5
18F7
  8
0
  0
BLOCK
  8
0
  2
*U6
 70
     1
 10
0.0
 20
0.0
 30
0.0
  3
*U6
  1

  0
TEXT
  5
4152
  8
标注
 10
259.96664454990457
 20
152.31669580177561
 30
0.0
 40
0.65
  1
28"
  0
ENDBLK
  5
4154
  8
0
  0
BLOCK
  8
0
  2
*D7
 70
     1
 10
0.0
 20
0.0
 30
0.0
  3
*D7
  1

  0
LINE
  5
191D
  8
标注
 10
245.70135583605449
 20
153.9143957570584
 30
0.0
 11
245.70135583605449
 21
150.49049216546501
 31
0.0
  0
LINE
  5
191E
  8
标注
 10
275.70135583593452
 20
153.9143957570584
 30
0.0
 11
275.70135583593452
 21
150.49049216546501
 31
0.0
  0
LINE
  5
191F
  8
标注
 10
246.35135583605449
 20
150.81049216546481
 30
0.0
 11
259.79718916932791
 21
150.81049216546481
 31
0.0
  0
LINE
  5
1920
  8
标注
 10
275.05135583593449
 20
150.81049216546481
 30
0.0
 11
261.60552250266107
 21
150.81049216546481
 31
0.0
  0
SOLID
  5
1921
  8
标注
 10
246.35135583605449
 20
150.9188254987983
 30
0.0
 11
246.35135583605449
 21
150.70215883213169
 31
0.0
 12
245.70135583605449
 22
150.81049216546481
 32
0.0
 13
245.70135583605449
 23
150.81049216546481
 33
0.0
  0
SOLID
  5
1922
  8
标注
 10
275.05135583593449
 20
150.9188254987983
 30
0.0
 11
275.05135583593449
 21
150.70215883213169
 31
0.0
 12
275.70135583593452
 22
150.81049216546481
 32
0.0
 13
275.70135583593452
 23
150.81049216546481
 33
0.0
  0
INSERT
  5
1923
  8
标注
  2
*U8
 10
0.0
 20
0.0
 30
0.0
  0
POINT
  5
1924
  8
DEFPOINTS
 62
     0
 10
245.70135583605449
 20
154.7943957570584
 30
0.0
  0
POINT
  5
1925
  8
DEFPOINTS
 62
     0
 10
275.70135583593452
 20
154.7943957570584
 30
0.0
  0
POINT
  5
1926
  8
DEFPOINTS
 62
     0
 10
275.70135583593452
 20
150.81049216546481
 30
0.0
  0
ENDBLK
  5
1911
  8
0
  0
BLOCK
  8
0
  2
*U8
 70
     1
 10
0.0
 20
0.0
 30
0.0
  3
*U8
  1

  0
TEXT
  5
4156
  8
标注
 10
259.99718916932773
 20
150.4854921654649
 30
0.0
 40
0.65
  1
30"
  0
ENDBLK
  5
4158
  8
0
  0
BLOCK
  8
0
  2
*D9
 70
     1
 10
0.0
 20
0.0
 30
0.0
  3
*D9
  1

  0
LINE
  5
1937
  8
标注
 10
275.5813558359381
 20
155.7943957570547
 30
0.0
 11
277.96365574636133
 21
155.7943957570547
 31
0.0
  0
LINE
  5
1938
  8
标注
 10
275.5813558359381
 20
171.79439575699291
 30
0.0
 11
277.96365574636133
 21
171.79439575699291
 31
0.0
  0
LINE
  5
1939
  8
标注
 10
277.64365574636128
 20
156.44439575705471
 30
0.0
 11
277.64365574636128
 21
162.94439575702381
 31
0.0
  0
LINE
  5
193A
  8
标注
 10
277.64365574636128
 20
171.14439575699279
 30
0.0
 11
277.64365574636128
 21
164.6443957570238
 31
0.0
  0
SOLID
  5
193B
  8
标注
 10
277.53532241302798
 20
156.44439575705471
 30
0.0
 11
277.75198907969468
 21
156.44439575705471
 31
0.0
 12
277.64365574636128
 22
155.7943957570547
 32
0.0
 13
277.64365574636128
 23
155.7943957570547
 33
0.0
  0
SOLID
  5
193C
  8
标注
 10
277.53532241302798
 20
171.14439575699279
 30
0.0
 11
277.75198907969468
 21
171.14439575699279
 31
0.0
 12
277.64365574636128
 22
171.79439575699291
 32
0.0
 13
277.64365574636128
 23
171.79439575699291
 33
0.0
  0
INSERT
  5
193D
  8
标注
  2
*U10
 10
0.0
 20
0.0
 30
0.0
  0
POINT
  5
193E
  8
DEFPOINTS
 62
     0
 10
274.7013558359381
 20
155.7943957570547
 30
0.0
  0
POINT
  5
193F
  8
DEFPOINTS
 62
     0
 10
274.7013558359381
 20
171.79439575699291
 30
0.0
  0
POINT
  5
1940
  8
DEFPOINTS
 62
     0
 10
277.64365574636128
 20
171.79439575699291
 30
0.0
  0
ENDBLK
  5
192B
  8
0
  0
BLOCK
  8
0
  2
*U10
 70
     1
 10
0.0
 20
0.0
 30
0.0
  3
*U10
  1

  0
TEXT
  5
415A
  8
标注
 10
277.96865574636121
 20
163.1443957570238
 30
0.0
 40
0.65
  1
16"
 50
90.0
  0
ENDBLK
  5
415C
  8
0
  0
BLOCK
  8
0
  2
*D11
 70
     1
 10
0.0
 20
0.0
 30
0.0
  3
*D11
  1

  0
LINE
  5
1951
  8
标注
 10
276.58135583593452
 20
154.7943957570584
 30
0.0
 11
279.70185460453013
 21
154.7943957570584
 31
0.0
  0
LINE
  5
1952
  8
标注
 10
276.58135583593452
 20
172.79439575698561
 30
0.0
 11
279.70185460453013
 21
172.79439575698561
 31
0.0
  0
LINE
  5
1953
  8
标注
 10
279.38185460453008
 20
155.4443957570584
 30
0.0
 11
279.38185460453008
 21
162.94439575702199
 31
0.0
  0
LINE
  5
1954
  8
标注
 10
279.38185460453008
 20
172.1443957569854
 30
0.0
 11
279.38185460453008
 21
164.64439575702201
 31
0.0
  0
SOLID
  5
1955
  8
标注
 10
279.27352127119678
 20
155.4443957570584
 30
0.0
 11
279.49018793786348
 21
155.4443957570584
 31
0.0
 12
279.38185460453008
 22
154.7943957570584
 32
0.0
 13
279.38185460453008
 23
154.7943957570584
 33
0.0
  0
SOLID
  5
1956
  8
标注
 10
279.27352127119678
 20
172.1443957569854
 30
0.0
 11
279.49018793786348
 21
172.1443957569854
 31
0.0
 12
279.38185460453008
 22
172.79439575698561
 32
0.0
 13
279.38185460453008
 23
172.79439575698561
 33
0.0
  0
INSERT
  5
1957
  8
标注
  2
*U12
 10
0.0
 20
0.0
 30
0.0
  0
POINT
  5
1958
  8
DEFPOINTS
 62
     0
 10
275.70135583593452
 20
154.7943957570584
 30
0.0
  0
POINT
  5
1959
  8
DEFPOINTS
 62
     0
 10
275.70135583593452
 20
172.79439575698561
 30
0.0
  0
POINT
  5
195A
  8
DEFPOINTS
 62
     0
 10
279.38185460453008
 20
172.79439575698561
 30
0.0
  0
ENDBLK
  5
1945
  8
0
  0
BLOCK
  8
0
  2
*U12
 70
     1
 10
0.0
 20
0.0
 30
0.0
  3
*U12
  1

  0
TEXT
  5
415E
  8
标注
 10
279.70685460453012
 20
163.1443957570219
 30
0.0
 40
0.65
  1
18"
 50
90.0
  0
ENDBLK
  5
4160
  8
0
  0
BLOCK
  8
0
  2
*D13
 70
     1
 10
0.0
 20
0.0
 30
0.0
  3
*D13
  1

  0
LINE
  5
196B
  8
标注
 10
248.7126023456172
 20
114.8692766070514
 30
0.0
 11
248.7126023456172
 21
112.6370075107335
 31
0.0
  0
LINE
  5
196C
  8
标注
 10
276.87008266046598
 20
114.8692766070514
 30
0.0
 11
276.87008266046598
 21
112.6370075107335
 31
0.0
  0
LINE
  5
196D
  8
标注
 10
249.3626023456172
 20
112.9570075107335
 30
0.0
 11
260.64134250304159
 21
112.9570075107335
 31
0.0
  0
LINE
  5
196E
  8
标注
 10
276.22008266046589
 20
112.9570075107335
 30
0.0
 11
264.94134250304148
 21
112.9570075107335
 31
0.0
  0
SOLID
  5
196F
  8
标注
 10
249.3626023456172
 20
113.0653408440668
 30
0.0
 11
249.3626023456172
 21
112.8486741774002
 31
0.0
 12
248.7126023456172
 22
112.9570075107335
 32
0.0
 13
248.7126023456172
 23
112.9570075107335
 33
0.0
  0
SOLID
  5
1970
  8
标注
 10
276.22008266046589
 20
113.0653408440668
 30
0.0
 11
276.22008266046589
 21
112.8486741774002
 31
0.0
 12
276.87008266046598
 22
112.9570075107335
 32
0.0
 13
276.87008266046598
 23
112.9570075107335
 33
0.0
  0
INSERT
  5
1971
  8
标注
  2
*U14
 10
0.0
 20
0.0
 30
0.0
  0
POINT
  5
1972
  8
DEFPOINTS
 62
     0
 10
248.7126023456172
 20
115.7492766070514
 30
0.0
  0
POINT
  5
1973
  8
DEFPOINTS
 62
     0
 10
276.87008266046598
 20
115.7492766070514
 30
0.0
  0
POINT
  5
1974
  8
DEFPOINTS
 62
     0
 10
276.87008266046598
 20
112.9570075107335
 30
0.0
  0
ENDBLK
  5
195F
  8
0
  0
BLOCK
  8
0
  2
*U14
 70
     1
 10
0.0
 20
0.0
 30
0.0
  3
*U14
  1

  0
TEXT
  5
4162
  8
标注
 10
260.84134250304152
 20
112.6320075107335
 30
0.0
 40
0.65
  1
28 1/8"
  0
ENDBLK
  5
4164
  8
0
  0
BLOCK
  8
0
  2
*D15
 70
     1
 10
0.0
 20
0.0
 30
0.0
  3
*D15
  1

  0
LINE
  5
1985
  8
标注
 10
277.75008266046592
 20
115.7492766070514
 30
0.0
 11
279.32676146406828
 21
115.7492766070514
 31
0.0
  0
LINE
  5
1986
  8
标注
 10
277.75008266046592
 20
131.9067569219456
 30
0.0
 11
279.3267614640684
 21
131.9067569219456
 31
0.0
  0
LINE
  5
1987
  8
标注
 10
279.00676146406829
 20
116.39927660705141
 30
0.0
 11
279.00676146406829
 21
121.7863500978319
 31
0.0
  0
LINE
  5
1988
  8
标注
 10
279.0067614640684
 20
131.25675692194559
 30
0.0
 11
279.00676146406829
 21
125.8696834311652
 31
0.0
  0
SOLID
  5
1989
  8
标注
 10
278.898428130735
 20
116.39927660705141
 30
0.0
 11
279.1150947974017
 21
116.39927660705141
 31
0.0
 12
279.00676146406829
 22
115.7492766070514
 32
0.0
 13
279.00676146406829
 23
115.7492766070514
 33
0.0
  0
SOLID
  5
198A
  8
标注
 10
278.898428130735
 20
131.25675692194559
 30
0.0
 11
279.1150947974017
 21
131.25675692194559
 31
0.0
 12
279.0067614640684
 22
131.9067569219456
 32
0.0
 13
279.0067614640684
 23
131.9067569219456
 33
0.0
  0
INSERT
  5
198B
  8
标注
  2
*U16
 10
0.0
 20
0.0
 30
0.0
  0
POINT
  5
198C
  8
DEFPOINTS
 62
     0
 10
276.87008266046598
 20
115.7492766070514
 30
0.0
  0
POINT
  5
198D
  8
DEFPOINTS
 62
     0
 10
276.87008266046598
 20
131.9067569219456
 30
0.0
  0
POINT
  5
198E
  8
DEFPOINTS
 62
     0
 10
279.0067614640684
 20
131.9067569219456
 30
0.0
  0
ENDBLK
  5
1979
  8
0
  0
BLOCK
  8
0
  2
*U16
 70
     1
 10
0.0
 20
0.0
 30
0.0
  3
*U16
  1

  0
TEXT
  5
4166
  8
标注
 10
279.33176146406828
 20
121.9863500978319
 30
0.0
 40
0.65
  1
16 1/8"
 50
90.0
  0
ENDBLK
  5
4168
  8
0
  0
BLOCK
  8
0
  2
_NONE
 70
     0
 10
0.0
 20
0.0
 30
0.0
  3
_NONE
  1

  0
ENDBLK
  5
1AF0
  8
0
  0
BLOCK
  8
0
  2
*D18
 70
     1
 10
0.0
 20
0.0
 30
0.0
  3
*D18
  1

  0
LINE
  5
1C7B
  8
标注
  6
BYBLOCK
 10
329.22996386603847
 20
151.42531420894281
 30
0.0
 11
329.22996386603847
 21
149.5979431051932
 31
0.0
  0
LINE
  5
1C7C
  8
标注
  6
BYBLOCK
 10
359.22996386592212
 20
151.42531420894281
 30
0.0
 11
359.22996386592212
 21
149.5979431051932
 31
0.0
  0
LINE
  5
1C7D
  8
标注
  6
BYBLOCK
 10
329.87996386603851
 20
149.9179431051933
 30
0.0
 11
343.32579719931368
 21
149.9179431051933
 31
0.0
  0
LINE
  5
1C7E
  8
标注
  6
BYBLOCK
 10
358.57996386592208
 20
149.9179431051933
 30
0.0
 11
345.13413053264708
 21
149.9179431051933
 31
0.0
  0
SOLID
  5
1C7F
  8
标注
 10
329.87996386603851
 20
150.02627643852659
 30
0.0
 11
329.87996386603851
 21
149.8096097718599
 31
0.0
 12
329.22996386603847
 22
149.9179431051933
 32
0.0
 13
329.22996386603847
 23
149.9179431051933
 33
0.0
  0
SOLID
  5
1C80
  8
标注
 10
358.57996386592208
 20
150.02627643852659
 30
0.0
 11
358.57996386592208
 21
149.8096097718599
 31
0.0
 12
359.22996386592212
 22
149.9179431051933
 32
0.0
 13
359.22996386592212
 23
149.9179431051933
 33
0.0
  0
INSERT
  5
1C81
  8
标注
  2
*U19
 10
0.0
 20
0.0
 30
0.0
  0
POINT
  5
1C82
  8
DEFPOINTS
 62
     0
 10
329.22996386603847
 20
152.3053142089428
 30
0.0
  0
POINT
  5
1C83
  8
DEFPOINTS
 62
     0
 10
359.22996386592212
 20
152.3053142089428
 30
0.0
  0
POINT
  5
1C84
  8
DEFPOINTS
 62
     0
 10
359.22996386592212
 20
149.9179431051933
 30
0.0
  0
ENDBLK
  5
1B8E
  8
0
  0
BLOCK
  8
0
  2
*U19
 70
     1
 10
0.0
 20
0.0
 30
0.0
  3
*U19
  1

  0
TEXT
  5
4171
  8
标注
 10
343.52579719931367
 20
149.5929431051932
 30
0.0
 40
0.65
  1
30"
  0
ENDBLK
  5
4173
  8
0
  0
BLOCK
  8
0
  2
*D20
 70
     1
 10
0.0
 20
0.0
 30
0.0
  3
*D20
  1

  0
LINE
  5
1C85
  8
标注
  6
BYBLOCK
 10
328.22996386603847
 20
151.42531420894281
 30
0.0
 11
328.22996386603847
 21
148.39944058882071
 31
0.0
  0
LINE
  5
1C86
  8
标注
  6
BYBLOCK
 10
360.22996386592212
 20
151.42531420894281
 30
0.0
 11
360.22996386592212
 21
148.39944058882071
 31
0.0
  0
LINE
  5
1C87
  8
标注
  6
BYBLOCK
 10
328.87996386603851
 20
148.71944058882059
 30
0.0
 11
343.27163053264701
 21
148.71944058882059
 31
0.0
  0
LINE
  5
1C88
  8
标注
  6
BYBLOCK
 10
359.57996386592208
 20
148.71944058882059
 30
0.0
 11
345.18829719931358
 21
148.71944058882059
 31
0.0
  0
SOLID
  5
1C89
  8
标注
 10
328.87996386603851
 20
148.82777392215399
 30
0.0
 11
328.87996386603851
 21
148.61110725548741
 31
0.0
 12
328.22996386603847
 22
148.71944058882059
 32
0.0
 13
328.22996386603847
 23
148.71944058882059
 33
0.0
  0
SOLID
  5
1C8A
  8
标注
 10
359.57996386592208
 20
148.82777392215399
 30
0.0
 11
359.57996386592208
 21
148.61110725548741
 31
0.0
 12
360.22996386592212
 22
148.71944058882059
 32
0.0
 13
360.22996386592212
 23
148.71944058882059
 33
0.0
  0
INSERT
  5
1C8B
  8
标注
  2
*U21
 10
0.0
 20
0.0
 30
0.0
  0
POINT
  5
1C8C
  8
DEFPOINTS
 62
     0
 10
328.22996386603847
 20
152.3053142089428
 30
0.0
  0
POINT
  5
1C8D
  8
DEFPOINTS
 62
     0
 10
360.22996386592212
 20
152.3053142089428
 30
0.0
  0
POINT
  5
1C8E
  8
DEFPOINTS
 62
     0
 10
360.22996386592212
 20
148.71944058882059
 30
0.0
  0
ENDBLK
  5
1BA8
  8
0
  0
BLOCK
  8
0
  2
*U21
 70
     1
 10
0.0
 20
0.0
 30
0.0
  3
*U21
  1

  0
TEXT
  5
4175
  8
标注
 10
343.471630532647
 20
148.39444058882069
 30
0.0
 40
0.65
  1
32"
  0
ENDBLK
  5
4177
  8
0
  0
BLOCK
  8
0
  2
*D22
 70
     1
 10
0.0
 20
0.0
 30
0.0
  3
*D22
  1

  0
LINE
  5
1C8F
  8
标注
  6
BYBLOCK
 10
361.10996386592211
 20
153.3053142089428
 30
0.0
 11
362.155379199084
 21
153.3053142089428
 31
0.0
  0
LINE
  5
1C90
  8
标注
  6
BYBLOCK
 10
361.10996386592211
 20
169.3053142088846
 30
0.0
 11
362.155379199084
 21
169.3053142088846
 31
0.0
  0
LINE
  5
1C91
  8
标注
  6
BYBLOCK
 10
361.835379199084
 20
153.95531420894281
 30
0.0
 11
361.835379199084
 21
160.45531420891371
 31
0.0
  0
LINE
  5
1C92
  8
标注
  6
BYBLOCK
 10
361.835379199084
 20
168.65531420888459
 30
0.0
 11
361.835379199084
 21
162.15531420891369
 31
0.0
  0
SOLID
  5
1C93
  8
标注
 10
361.72704586575071
 20
153.95531420894281
 30
0.0
 11
361.94371253241752
 21
153.95531420894281
 31
0.0
 12
361.835379199084
 22
153.3053142089428
 32
0.0
 13
361.835379199084
 23
153.3053142089428
 33
0.0
  0
SOLID
  5
1C94
  8
标注
 10
361.72704586575071
 20
168.65531420888459
 30
0.0
 11
361.94371253241752
 21
168.65531420888459
 31
0.0
 12
361.835379199084
 22
169.3053142088846
 32
0.0
 13
361.835379199084
 23
169.3053142088846
 33
0.0
  0
INSERT
  5
1C95
  8
标注
  2
*U23
 10
0.0
 20
0.0
 30
0.0
  0
POINT
  5
1C96
  8
DEFPOINTS
 62
     0
 10
360.22996386592212
 20
153.3053142089428
 30
0.0
  0
POINT
  5
1C97
  8
DEFPOINTS
 62
     0
 10
360.22996386592212
 20
169.3053142088846
 30
0.0
  0
POINT
  5
1C98
  8
DEFPOINTS
 62
     0
 10
361.835379199084
 20
169.3053142088846
 30
0.0
  0
ENDBLK
  5
1BC2
  8
0
  0
BLOCK
  8
0
  2
*U23
 70
     1
 10
0.0
 20
0.0
 30
0.0
  3
*U23
  1

  0
TEXT
  5
4179
  8
标注
 10
362.16037919908388
 20
160.65531420891381
 30
0.0
 40
0.65
  1
16"
 50
90.0
  0
ENDBLK
  5
417B
  8
0
  0
BLOCK
  8
0
  2
*D24
 70
     1
 10
0.0
 20
0.0
 30
0.0
  3
*D24
  1

  0
LINE
  5
1C99
  8
标注
  6
BYBLOCK
 10
361.10996386592211
 20
152.3053142089428
 30
0.0
 11
363.55431005100138
 21
152.3053142089428
 31
0.0
  0
LINE
  5
1C9A
  8
标注
  6
BYBLOCK
 10
361.10996386592211
 20
170.30531420886999
 30
0.0
 11
363.55431005100138
 21
170.30531420886999
 31
0.0
  0
LINE
  5
1C9B
  8
标注
  6
BYBLOCK
 10
363.23431005100127
 20
152.95531420894281
 30
0.0
 11
363.23431005100127
 21
160.4553142089064
 31
0.0
  0
LINE
  5
1C9C
  8
标注
  6
BYBLOCK
 10
363.23431005100127
 20
169.6553142088701
 30
0.0
 11
363.23431005100127
 21
162.15531420890639
 31
0.0
  0
SOLID
  5
1C9D
  8
标注
 10
363.12597671766798
 20
152.95531420894281
 30
0.0
 11
363.34264338433462
 21
152.95531420894281
 31
0.0
 12
363.23431005100127
 22
152.3053142089428
 32
0.0
 13
363.23431005100127
 23
152.3053142089428
 33
0.0
  0
SOLID
  5
1C9E
  8
标注
 10
363.12597671766798
 20
169.6553142088701
 30
0.0
 11
363.34264338433462
 21
169.6553142088701
 31
0.0
 12
363.23431005100127
 22
170.30531420886999
 32
0.0
 13
363.23431005100127
 23
170.30531420886999
 33
0.0
  0
INSERT
  5
1C9F
  8
标注
  2
*U25
 10
0.0
 20
0.0
 30
0.0
  0
POINT
  5
1CA0
  8
DEFPOINTS
 62
     0
 10
360.22996386592212
 20
152.3053142089428
 30
0.0
  0
POINT
  5
1CA1
  8
DEFPOINTS
 62
     0
 10
360.22996386592212
 20
170.30531420886999
 30
0.0
  0
POINT
  5
1CA2
  8
DEFPOINTS
 62
     0
 10
363.23431005100127
 20
170.30531420886999
 30
0.0
  0
ENDBLK
  5
1BDC
  8
0
  0
BLOCK
  8
0
  2
*U25
 70
     1
 10
0.0
 20
0.0
 30
0.0
  3
*U25
  1

  0
TEXT
  5
417D
  8
标注
 10
363.55931005100132
 20
160.6553142089065
 30
0.0
 40
0.65
  1
18"
 50
90.0
  0
ENDBLK
  5
417F
  8
0
  0
BLOCK
  8
0
  2
*D26
 70
     1
 10
0.0
 20
0.0
 30
0.0
  3
*D26
  1

  0
LINE
  5
1C2B
  8
标注
  6
BYBLOCK
 10
361.10996386592211
 20
189.9339840107005
 30
0.0
 11
362.26818220725443
 21
189.9339840107005
 31
0.0
  0
LINE
  5
1C2C
  8
标注
  6
BYBLOCK
 10
361.10958542980592
 20
179.99101187994731
 30
0.0
 11
362.26818220725443
 21
179.99101187994731
 31
0.0
  0
LINE
  5
1C2D
  8
标注
  6
BYBLOCK
 10
361.94818220725438
 20
189.28398401070041
 30
0.0
 11
361.94818220725438
 21
185.7583312786571
 31
0.0
  0
LINE
  5
1C2E
  8
标注
  6
BYBLOCK
 10
361.94818220725438
 20
180.64101187994731
 30
0.0
 11
361.94818220725438
 21
184.1666646119906
 31
0.0
  0
SOLID
  5
1C2F
  8
标注
 10
361.83984887392103
 20
189.28398401070041
 30
0.0
 11
362.05651554058772
 21
189.28398401070041
 31
0.0
 12
361.94818220725438
 22
189.9339840107005
 32
0.0
 13
361.94818220725438
 23
189.9339840107005
 33
0.0
  0
SOLID
  5
1C30
  8
标注
 10
361.83984887392103
 20
180.64101187994731
 30
0.0
 11
362.05651554058772
 21
180.64101187994731
 31
0.0
 12
361.94818220725438
 22
179.99101187994731
 32
0.0
 13
361.94818220725438
 23
179.99101187994731
 33
0.0
  0
INSERT
  5
1C31
  8
标注
  2
*U27
 10
0.0
 20
0.0
 30
0.0
  0
POINT
  5
1C32
  8
DEFPOINTS
 62
     0
 10
360.22996386592212
 20
189.9339840107005
 30
0.0
  0
POINT
  5
1C33
  8
DEFPOINTS
 62
     0
 10
360.22958542980592
 20
179.99101187994731
 30
0.0
  0
POINT
  5
1C34
  8
DEFPOINTS
 62
     0
 10
361.94818220725438
 20
179.99101187994731
 30
0.0
  0
ENDBLK
  5
1BF6
  8
0
  0
BLOCK
  8
0
  2
*U27
 70
     1
 10
0.0
 20
0.0
 30
0.0
  3
*U27
  1

  0
TEXT
  5
416D
  8
标注
 10
362.27318220725431
 20
184.3666646119905
 30
0.0
 40
0.65
  1
10"
 50
90.0
  0
ENDBLK
  5
416F
  8
0
  0
BLOCK
  8
0
  2
*D28
 70
     1
 10
0.0
 20
0.0
 30
0.0
  3
*D28
  1

  0
LINE
  5
1CC5
  8
标注
  6
BYBLOCK
 10
360.227089264992
 20
114.54638093061079
 30
0.0
 11
361.45695892393837
 21
114.54638093061079
 31
0.0
  0
LINE
  5
1CC6
  8
标注
  6
BYBLOCK
 10
360.227089264992
 20
130.70386170300631
 30
0.0
 11
361.45695892393837
 21
130.70386170300631
 31
0.0
  0
LINE
  5
1CC7
  8
标注
  6
BYBLOCK
 10
361.13695892393838
 20
115.1963809306108
 30
0.0
 11
361.13695892393838
 21
120.5834546501419
 31
0.0
  0
LINE
  5
1CC8
  8
标注
  6
BYBLOCK
 10
361.13695892393838
 20
130.05386170300631
 30
0.0
 11
361.13695892393838
 21
124.6667879834752
 31
0.0
  0
SOLID
  5
1CC9
  8
标注
 10
361.02862559060492
 20
115.1963809306108
 30
0.0
 11
361.24529225727167
 21
115.1963809306108
 31
0.0
 12
361.13695892393838
 22
114.54638093061079
 32
0.0
 13
361.13695892393838
 23
114.54638093061079
 33
0.0
  0
SOLID
  5
1CCA
  8
标注
 10
361.02862559060509
 20
130.05386170300631
 30
0.0
 11
361.24529225727167
 21
130.05386170300631
 31
0.0
 12
361.13695892393838
 22
130.70386170300631
 32
0.0
 13
361.13695892393838
 23
130.70386170300631
 33
0.0
  0
INSERT
  5
1CCB
  8
标注
  2
*U29
 10
0.0
 20
0.0
 30
0.0
  0
POINT
  5
1CCC
  8
DEFPOINTS
 62
     0
 10
359.34708926499212
 20
114.54638093061079
 30
0.0
  0
POINT
  5
1CCD
  8
DEFPOINTS
 62
     0
 10
359.34708926499212
 20
130.70386170300631
 30
0.0
  0
POINT
  5
1CCE
  8
DEFPOINTS
 62
     0
 10
361.13695892393838
 20
130.70386170300631
 30
0.0
  0
ENDBLK
  5
1CB9
  8
0
  0
BLOCK
  8
0
  2
*U29
 70
     1
 10
0.0
 20
0.0
 30
0.0
  3
*U29
  1

  0
TEXT
  5
4181
  8
标注
 10
361.46195892393843
 20
120.78345465014191
 30
0.0
 40
0.65
  1
16 1/8"
 50
90.0
  0
ENDBLK
  5
4183
  8
0
  0
BLOCK
  8
0
  2
*D30
 70
     1
 10
0.0
 20
0.0
 30
0.0
  3
*D30
  1

  0
LINE
  5
1CDF
  8
标注
  6
BYBLOCK
 10
329.18960895015249
 20
113.6663813881085
 30
0.0
 11
329.18960895015249
 21
111.91154385154699
 31
0.0
  0
LINE
  5
1CE0
  8
标注
  6
BYBLOCK
 10
359.34708926499212
 20
113.6663809306108
 30
0.0
 11
359.34708926499212
 21
111.91154385154699
 31
0.0
  0
LINE
  5
1CE1
  8
标注
  6
BYBLOCK
 10
329.83960895015252
 20
112.2315438515469
 30
0.0
 11
342.172515774239
 21
112.2315438515469
 31
0.0
  0
LINE
  5
1CE2
  8
标注
  6
BYBLOCK
 10
358.69708926499209
 20
112.2315438515469
 30
0.0
 11
346.36418244090561
 21
112.2315438515469
 31
0.0
  0
SOLID
  5
1CE3
  8
标注
 10
329.83960895015252
 20
112.33987718488019
 30
0.0
 11
329.83960895015252
 21
112.1232105182136
 31
0.0
 12
329.18960895015249
 22
112.2315438515469
 32
0.0
 13
329.18960895015249
 23
112.2315438515469
 33
0.0
  0
SOLID
  5
1CE4
  8
标注
 10
358.69708926499209
 20
112.33987718488019
 30
0.0
 11
358.69708926499209
 21
112.1232105182136
 31
0.0
 12
359.34708926499212
 22
112.2315438515469
 32
0.0
 13
359.34708926499212
 23
112.2315438515469
 33
0.0
  0
INSERT
  5
1CE5
  8
标注
  2
*U31
 10
0.0
 20
0.0
 30
0.0
  0
POINT
  5
1CE6
  8
DEFPOINTS
 62
     0
 10
329.18960895015249
 20
114.5463813881085
 30
0.0
  0
POINT
  5
1CE7
  8
DEFPOINTS
 62
     0
 10
359.34708926499212
 20
114.54638093061079
 30
0.0
  0
POINT
  5
1CE8
  8
DEFPOINTS
 62
     0
 10
359.34708926499212
 20
112.2315438515469
 30
0.0
  0
ENDBLK
  5
1CD3
  8
0
  0
BLOCK
  8
0
  2
*U31
 70
     1
 10
0.0
 20
0.0
 30
0.0
  3
*U31
  1

  0
TEXT
  5
4185
  8
标注
 10
342.37251577423888
 20
111.9065438515469
 30
0.0
 40
0.65
  1
30 1/8"
  0
ENDBLK
  5
4187
  8
0
  0
BLOCK
  8
0
  2
*D32
 70
     1
 10
0.0
 20
0.0
 30
0.0
  3
*D32
  1

  0
LINE
  5
1F1E
  8
标注
  6
BYBLOCK
 10
379.4742863994303
 20
114.6596074441732
 30
0.0
 11
379.4742863994303
 21
113.0374838479009
 31
0.0
  0
LINE
  5
1F1F
  8
标注
  6
BYBLOCK
 10
409.6317667142697
 20
114.6596074441732
 30
0.0
 11
409.6317667142697
 21
113.0374838479009
 31
0.0
  0
LINE
  5
1F20
  8
标注
  6
BYBLOCK
 10
380.12428639943022
 20
113.3574838479008
 30
0.0
 11
392.4571932235167
 21
113.3574838479008
 31
0.0
  0
LINE
  5
1F21
  8
标注
  6
BYBLOCK
 10
408.9817667142699
 20
113.3574838479008
 30
0.0
 11
396.64885989018342
 21
113.3574838479008
 31
0.0
  0
SOLID
  5
1F22
  8
标注
 10
380.12428639943022
 20
113.4658171812342
 30
0.0
 11
380.12428639943022
 21
113.2491505145676
 31
0.0
 12
379.4742863994303
 22
113.3574838479008
 32
0.0
 13
379.4742863994303
 23
113.3574838479008
 33
0.0
  0
SOLID
  5
1F23
  8
标注
 10
408.9817667142699
 20
113.4658171812342
 30
0.0
 11
408.9817667142699
 21
113.2491505145676
 31
0.0
 12
409.6317667142697
 22
113.3574838479008
 32
0.0
 13
409.6317667142697
 23
113.3574838479008
 33
0.0
  0
INSERT
  5
1F24
  8
标注
  2
*U33
 10
0.0
 20
0.0
 30
0.0
  0
POINT
  5
1F25
  8
DEFPOINTS
 62
     0
 10
379.4742863994303
 20
115.5396074441732
 30
0.0
  0
POINT
  5
1F26
  8
DEFPOINTS
 62
     0
 10
409.6317667142697
 20
115.5396074441732
 30
0.0
  0
POINT
  5
1F27
  8
DEFPOINTS
 62
     0
 10
409.6317667142697
 20
113.3574838479008
 30
0.0
  0
ENDBLK
  5
1F12
  8
0
  0
BLOCK
  8
0
  2
*U33
 70
     1
 10
0.0
 20
0.0
 30
0.0
  3
*U33
  1

  0
TEXT
  5
418D
  8
标注
 10
392.65719322351669
 20
113.03248384790091
 30
0.0
 40
0.65
  1
30 1/8"
  0
ENDBLK
  5
418F
  8
0
  0
BLOCK
  8
0
  2
*D34
 70
     1
 10
0.0
 20
0.0
 30
0.0
  3
*D34
  1

  0
LINE
  5
1F38
  8
标注
  6
BYBLOCK
 10
410.5117667142697
 20
115.5396074441732
 30
0.0
 11
412.37327949016651
 21
115.5396074441732
 31
0.0
  0
LINE
  5
1F39
  8
标注
  6
BYBLOCK
 10
410.5117667142697
 20
131.69708775906381
 30
0.0
 11
412.37327949016662
 21
131.69708775906381
 31
0.0
  0
LINE
  5
1F3A
  8
标注
  6
BYBLOCK
 10
412.05327949016657
 20
116.1896074441733
 30
0.0
 11
412.05327949016657
 21
121.5766809349519
 31
0.0
  0
LINE
  5
1F3B
  8
标注
  6
BYBLOCK
 10
412.05327949016657
 20
131.0470877590638
 30
0.0
 11
412.05327949016657
 21
125.6600142682852
 31
0.0
  0
SOLID
  5
1F3C
  8
标注
 10
411.94494615683328
 20
116.1896074441733
 30
0.0
 11
412.16161282349992
 21
116.1896074441733
 31
0.0
 12
412.05327949016657
 22
115.5396074441732
 32
0.0
 13
412.05327949016657
 23
115.5396074441732
 33
0.0
  0
SOLID
  5
1F3D
  8
标注
 10
411.94494615683328
 20
131.0470877590638
 30
0.0
 11
412.16161282349992
 21
131.0470877590638
 31
0.0
 12
412.05327949016657
 22
131.69708775906381
 32
0.0
 13
412.05327949016657
 23
131.69708775906381
 33
0.0
  0
INSERT
  5
1F3E
  8
标注
  2
*U35
 10
0.0
 20
0.0
 30
0.0
  0
POINT
  5
1F3F
  8
DEFPOINTS
 62
     0
 10
409.6317667142697
 20
115.5396074441732
 30
0.0
  0
POINT
  5
1F40
  8
DEFPOINTS
 62
     0
 10
409.6317667142697
 20
131.69708775906381
 30
0.0
  0
POINT
  5
1F41
  8
DEFPOINTS
 62
     0
 10
412.05327949016657
 20
131.69708775906381
 30
0.0
  0
ENDBLK
  5
1F2C
  8
0
  0
BLOCK
  8
0
  2
*U35
 70
     1
 10
0.0
 20
0.0
 30
0.0
  3
*U35
  1

  0
TEXT
  5
4191
  8
标注
 10
412.37827949016651
 20
121.7766809349519
 30
0.0
 40
0.65
  1
16 1/8"
 50
90.0
  0
ENDBLK
  5
4193
  8
0
  0
BLOCK
  8
0
  2
*D36
 70
     1
 10
0.0
 20
0.0
 30
0.0
  3
*D36
  1

  0
LINE
  5
2005
  8
标注
  6
BYBLOCK
 10
379.55302655691543
 20
148.78232815599389
 30
0.0
 11
379.55302655691543
 21
147.40862079089769
 31
0.0
  0
LINE
  5
2006
  8
标注
  6
BYBLOCK
 10
409.55302655678457
 20
148.78232815599389
 30
0.0
 11
409.55302655678457
 21
147.40862079089769
 31
0.0
  0
LINE
  5
2007
  8
标注
  6
BYBLOCK
 10
380.20302655691552
 20
147.72862079089771
 30
0.0
 11
393.64885989018342
 21
147.72862079089771
 31
0.0
  0
LINE
  5
2008
  8
标注
  6
BYBLOCK
 10
408.9030265567846
 20
147.72862079089771
 30
0.0
 11
395.4571932235167
 21
147.72862079089771
 31
0.0
  0
SOLID
  5
2009
  8
标注
 10
380.20302655691552
 20
147.83695412423111
 30
0.0
 11
380.20302655691552
 21
147.62028745756439
 31
0.0
 12
379.55302655691543
 22
147.72862079089771
 32
0.0
 13
379.55302655691543
 23
147.72862079089771
 33
0.0
  0
SOLID
  5
200A
  8
标注
 10
408.9030265567846
 20
147.83695412423111
 30
0.0
 11
408.9030265567846
 21
147.62028745756439
 31
0.0
 12
409.55302655678457
 22
147.72862079089771
 32
0.0
 13
409.55302655678457
 23
147.72862079089771
 33
0.0
  0
INSERT
  5
200B
  8
标注
  2
*U37
 10
0.0
 20
0.0
 30
0.0
  0
POINT
  5
200C
  8
DEFPOINTS
 62
     0
 10
379.55302655691543
 20
149.66232815599389
 30
0.0
  0
POINT
  5
200D
  8
DEFPOINTS
 62
     0
 10
409.55302655678457
 20
149.66232815599389
 30
0.0
  0
POINT
  5
200E
  8
DEFPOINTS
 62
     0
 10
409.55302655678457
 20
147.72862079089771
 30
0.0
  0
ENDBLK
  5
1F46
  8
0
  0
BLOCK
  8
0
  2
*U37
 70
     1
 10
0.0
 20
0.0
 30
0.0
  3
*U37
  1

  0
TEXT
  5
419D
  8
标注
 10
393.84885989018341
 20
147.40362079089769
 30
0.0
 40
0.65
  1
30"
  0
ENDBLK
  5
419F
  8
0
  0
BLOCK
  8
0
  2
*D38
 70
     1
 10
0.0
 20
0.0
 30
0.0
  3
*D38
  1

  0
LINE
  5
1F6C
  8
标注
  6
BYBLOCK
 10
378.5530265569156
 20
148.78232815599389
 30
0.0
 11
378.5530265569156
 21
146.00327447644929
 31
0.0
  0
LINE
  5
1F6D
  8
标注
  6
BYBLOCK
 10
410.5530265567844
 20
148.78232815599389
 30
0.0
 11
410.5530265567844
 21
146.00327447644929
 31
0.0
  0
LINE
  5
1F6E
  8
标注
  6
BYBLOCK
 10
379.20302655691552
 20
146.32327447644931
 30
0.0
 11
393.5946932235168
 21
146.32327447644931
 31
0.0
  0
LINE
  5
1F6F
  8
标注
  6
BYBLOCK
 10
409.90302655678448
 20
146.32327447644931
 30
0.0
 11
395.51135989018343
 21
146.32327447644931
 31
0.0
  0
SOLID
  5
1F70
  8
标注
 10
379.20302655691552
 20
146.43160780978261
 30
0.0
 11
379.20302655691552
 21
146.21494114311591
 31
0.0
 12
378.5530265569156
 22
146.32327447644931
 32
0.0
 13
378.5530265569156
 23
146.32327447644931
 33
0.0
  0
SOLID
  5
1F71
  8
标注
 10
409.90302655678448
 20
146.43160780978261
 30
0.0
 11
409.90302655678448
 21
146.21494114311591
 31
0.0
 12
410.5530265567844
 22
146.32327447644931
 32
0.0
 13
410.5530265567844
 23
146.32327447644931
 33
0.0
  0
INSERT
  5
1F72
  8
标注
  2
*U39
 10
0.0
 20
0.0
 30
0.0
  0
POINT
  5
1F73
  8
DEFPOINTS
 62
     0
 10
378.5530265569156
 20
149.66232815599389
 30
0.0
  0
POINT
  5
1F74
  8
DEFPOINTS
 62
     0
 10
410.5530265567844
 20
149.66232815599389
 30
0.0
  0
POINT
  5
1F75
  8
DEFPOINTS
 62
     0
 10
410.5530265567844
 20
146.32327447644931
 30
0.0
  0
ENDBLK
  5
1F60
  8
0
  0
BLOCK
  8
0
  2
*U39
 70
     1
 10
0.0
 20
0.0
 30
0.0
  3
*U39
  1

  0
TEXT
  5
4195
  8
标注
 10
393.79469322351679
 20
145.9982744764491
 30
0.0
 40
0.65
  1
32"
  0
ENDBLK
  5
4197
  8
0
  0
BLOCK
  8
0
  2
*D40
 70
     1
 10
0.0
 20
0.0
 30
0.0
  3
*D40
  1

  0
LINE
  5
2019
  8
标注
  6
BYBLOCK
 10
411.4330265567844
 20
150.66232815598659
 30
0.0
 11
412.55343136942503
 21
150.66232815598659
 31
0.0
  0
LINE
  5
201A
  8
标注
  6
BYBLOCK
 10
411.4330265567844
 20
166.6623281559211
 30
0.0
 11
412.55343136942503
 21
166.6623281559211
 31
0.0
  0
LINE
  5
201B
  8
标注
  6
BYBLOCK
 10
412.23343136942492
 20
151.31232815598659
 30
0.0
 11
412.23343136942492
 21
157.77295411853041
 31
0.0
  0
LINE
  5
201C
  8
标注
  6
BYBLOCK
 10
412.23343136942492
 20
166.0123281559211
 30
0.0
 11
412.23343136942492
 21
159.4729541185304
 31
0.0
  0
SOLID
  5
201D
  8
标注
 10
412.12509803609157
 20
151.31232815598659
 30
0.0
 11
412.34176470275838
 21
151.31232815598659
 31
0.0
 12
412.23343136942492
 22
150.66232815598659
 32
0.0
 13
412.23343136942492
 23
150.66232815598659
 33
0.0
  0
SOLID
  5
201E
  8
标注
 10
412.12509803609157
 20
166.0123281559211
 30
0.0
 11
412.34176470275838
 21
166.0123281559211
 31
0.0
 12
412.23343136942492
 22
166.6623281559211
 32
0.0
 13
412.23343136942492
 23
166.6623281559211
 33
0.0
  0
INSERT
  5
201F
  8
标注
  2
*U41
 10
0.0
 20
0.0
 30
0.0
  0
POINT
  5
2020
  8
DEFPOINTS
 62
     0
 10
410.5530265567844
 20
150.66232815598659
 30
0.0
  0
POINT
  5
2021
  8
DEFPOINTS
 62
     0
 10
410.5530265567844
 20
166.6623281559211
 30
0.0
  0
POINT
  5
2022
  8
DEFPOINTS
 62
     0
 10
412.23343136942492
 20
166.6623281559211
 30
0.0
  0
ENDBLK
  5
1F7A
  8
0
  0
BLOCK
  8
0
  2
*U41
 70
     1
 10
0.0
 20
0.0
 30
0.0
  3
*U41
  1

  0
TEXT
  5
41A1
  8
标注
 10
412.55843136942502
 20
157.9729541185304
 30
0.0
 40
0.65
  1
16"
 50
90.0
  0
ENDBLK
  5
41A3
  8
0
  0
BLOCK
  8
0
  2
*D42
 70
     1
 10
0.0
 20
0.0
 30
0.0
  3
*D42
  1

  0
LINE
  5
1FA0
  8
标注
  6
BYBLOCK
 10
411.4330265567844
 20
149.66232815599389
 30
0.0
 11
413.8659643087928
 21
149.66232815599389
 31
0.0
  0
LINE
  5
1FA1
  8
标注
  6
BYBLOCK
 10
411.4330265567844
 20
167.6623281559211
 30
0.0
 11
413.8659643087928
 21
167.6623281559211
 31
0.0
  0
LINE
  5
1FA2
  8
标注
  6
BYBLOCK
 10
413.54596430879269
 20
150.3123281559939
 30
0.0
 11
413.54596430879269
 21
157.8123281559574
 31
0.0
  0
LINE
  5
1FA3
  8
标注
  6
BYBLOCK
 10
413.54596430879269
 20
167.0123281559211
 30
0.0
 11
413.54596430879269
 21
159.5123281559575
 31
0.0
  0
SOLID
  5
1FA4
  8
标注
 10
413.43763097545929
 20
150.3123281559939
 30
0.0
 11
413.65429764212621
 21
150.3123281559939
 31
0.0
 12
413.54596430879269
 22
149.66232815599389
 32
0.0
 13
413.54596430879269
 23
149.66232815599389
 33
0.0
  0
SOLID
  5
1FA5
  8
标注
 10
413.43763097545929
 20
167.0123281559211
 30
0.0
 11
413.65429764212621
 21
167.0123281559211
 31
0.0
 12
413.54596430879269
 22
167.6623281559211
 32
0.0
 13
413.54596430879269
 23
167.6623281559211
 33
0.0
  0
INSERT
  5
1FA6
  8
标注
  2
*U43
 10
0.0
 20
0.0
 30
0.0
  0
POINT
  5
1FA7
  8
DEFPOINTS
 62
     0
 10
410.5530265567844
 20
149.66232815599389
 30
0.0
  0
POINT
  5
1FA8
  8
DEFPOINTS
 62
     0
 10
410.5530265567844
 20
167.6623281559211
 30
0.0
  0
POINT
  5
1FA9
  8
DEFPOINTS
 62
     0
 10
413.54596430879269
 20
167.6623281559211
 30
0.0
  0
ENDBLK
  5
1F94
  8
0
  0
BLOCK
  8
0
  2
*U43
 70
     1
 10
0.0
 20
0.0
 30
0.0
  3
*U43
  1

  0
TEXT
  5
4199
  8
标注
 10
413.87096430879279
 20
158.0123281559575
 30
0.0
 40
0.65
  1
18"
 50
90.0
  0
ENDBLK
  5
419B
  8
0
  0
BLOCK
  8
0
  2
*D44
 70
     1
 10
0.0
 20
0.0
 30
0.0
  3
*D44
  1

  0
LINE
  5
2406
  8
标注
  6
BYBLOCK
 10
469.18339367142391
 20
187.376976522278
 30
0.0
 11
470.6786519143721
 21
187.376976522278
 31
0.0
  0
LINE
  5
2407
  8
标注
  6
BYBLOCK
 10
469.21562465844721
 20
178.43453467404481
 30
0.0
 11
470.6786519143721
 21
178.43453467404481
 31
0.0
  0
LINE
  5
2408
  8
标注
  6
BYBLOCK
 10
470.3586519143721
 20
186.72697652227799
 30
0.0
 11
470.3586519143721
 21
183.4323651646352
 31
0.0
  0
LINE
  5
2409
  8
标注
  6
BYBLOCK
 10
470.3586519143721
 20
179.08453467404479
 30
0.0
 11
470.3586519143721
 21
182.16569849796849
 31
0.0
  0
SOLID
  5
240A
  8
标注
 10
470.25031858103881
 20
186.72697652227799
 30
0.0
 11
470.46698524770551
 21
186.72697652227799
 31
0.0
 12
470.3586519143721
 22
187.376976522278
 32
0.0
 13
470.3586519143721
 23
187.376976522278
 33
0.0
  0
SOLID
  5
240B
  8
标注
 10
470.25031858103881
 20
179.08453467404479
 30
0.0
 11
470.46698524770551
 21
179.08453467404479
 31
0.0
 12
470.3586519143721
 22
178.43453467404481
 32
0.0
 13
470.3586519143721
 23
178.43453467404481
 33
0.0
  0
INSERT
  5
240C
  8
标注
  2
*U45
 10
0.0
 20
0.0
 30
0.0
  0
POINT
  5
240D
  8
DEFPOINTS
 62
     0
 10
468.30339367142392
 20
187.376976522278
 30
0.0
  0
POINT
  5
240E
  8
DEFPOINTS
 62
     0
 10
468.33562465844722
 20
178.43453467404481
 30
0.0
  0
POINT
  5
240F
  8
DEFPOINTS
 62
     0
 10
470.3586519143721
 20
178.43453467404481
 30
0.0
  0
ENDBLK
  5
2028
  8
0
  0
BLOCK
  8
0
  2
*U45
 70
     1
 10
0.0
 20
0.0
 30
0.0
  3
*U45
  1

  0
TEXT
  5
41B2
  8
标注
 10
470.68365191437198
 20
182.36569849796851
 30
0.0
 40
0.65
  1
9"
 50
90.0
  0
ENDBLK
  5
41B4
  8
0
  0
BLOCK
  8
0
  2
*D46
 70
     1
 10
0.0
 20
0.0
 30
0.0
  3
*D46
  1

  0
LINE
  5
2450
  8
标注
  6
BYBLOCK
 10
439.30339367154022
 20
148.7823281559921
 30
0.0
 11
439.30339367154022
 21
147.7406797977844
 31
0.0
  0
LINE
  5
2451
  8
标注
  6
BYBLOCK
 10
467.3033936714275
 20
148.7823281559921
 30
0.0
 11
467.3033936714275
 21
147.7406797977844
 31
0.0
  0
LINE
  5
2452
  8
标注
  6
BYBLOCK
 10
439.9533936715402
 20
148.0606797977843
 30
0.0
 11
452.34506033815057
 21
148.0606797977843
 31
0.0
  0
LINE
  5
2453
  8
标注
  6
BYBLOCK
 10
466.65339367142758
 20
148.0606797977843
 30
0.0
 11
454.26172700481732
 21
148.0606797977843
 31
0.0
  0
SOLID
  5
2454
  8
标注
 10
439.9533936715402
 20
148.16901313111759
 30
0.0
 11
439.9533936715402
 21
147.95234646445101
 31
0.0
 12
439.30339367154022
 22
148.0606797977843
 32
0.0
 13
439.30339367154022
 23
148.0606797977843
 33
0.0
  0
SOLID
  5
2455
  8
标注
 10
466.65339367142758
 20
148.16901313111759
 30
0.0
 11
466.65339367142758
 21
147.95234646445101
 31
0.0
 12
467.3033936714275
 22
148.0606797977843
 32
0.0
 13
467.3033936714275
 23
148.0606797977843
 33
0.0
  0
INSERT
  5
2456
  8
标注
  2
*U47
 10
0.0
 20
0.0
 30
0.0
  0
POINT
  5
2457
  8
DEFPOINTS
 62
     0
 10
439.30339367154022
 20
149.66232815599199
 30
0.0
  0
POINT
  5
2458
  8
DEFPOINTS
 62
     0
 10
467.3033936714275
 20
149.66232815599199
 30
0.0
  0
POINT
  5
2459
  8
DEFPOINTS
 62
     0
 10
467.3033936714275
 20
148.0606797977843
 30
0.0
  0
ENDBLK
  5
2397
  8
0
  0
BLOCK
  8
0
  2
*U47
 70
     1
 10
0.0
 20
0.0
 30
0.0
  3
*U47
  1

  0
TEXT
  5
41BA
  8
标注
 10
452.54506033815051
 20
147.73567979778429
 30
0.0
 40
0.65
  1
28"
  0
ENDBLK
  5
41BC
  8
0
  0
BLOCK
  8
0
  2
*D48
 70
     1
 10
0.0
 20
0.0
 30
0.0
  3
*D48
  1

  0
LINE
  5
23BD
  8
标注
  6
BYBLOCK
 10
438.30339367154392
 20
148.7823281559921
 30
0.0
 11
438.30339367154392
 21
146.24595408827761
 31
0.0
  0
LINE
  5
23BE
  8
标注
  6
BYBLOCK
 10
468.30339367142392
 20
148.7823281559921
 30
0.0
 11
468.30339367142392
 21
146.24595408827761
 31
0.0
  0
LINE
  5
23BF
  8
标注
  6
BYBLOCK
 10
438.95339367154389
 20
146.56595408827769
 30
0.0
 11
452.39922700481719
 21
146.56595408827769
 31
0.0
  0
LINE
  5
23C0
  8
标注
  6
BYBLOCK
 10
467.65339367142388
 20
146.56595408827769
 30
0.0
 11
454.20756033815059
 21
146.56595408827769
 31
0.0
  0
SOLID
  5
23C1
  8
标注
 10
438.95339367154389
 20
146.67428742161101
 30
0.0
 11
438.95339367154389
 21
146.45762075494429
 31
0.0
 12
438.30339367154392
 22
146.56595408827769
 32
0.0
 13
438.30339367154392
 23
146.56595408827769
 33
0.0
  0
SOLID
  5
23C2
  8
标注
 10
467.65339367142388
 20
146.67428742161101
 30
0.0
 11
467.65339367142388
 21
146.45762075494429
 31
0.0
 12
468.30339367142392
 22
146.56595408827769
 32
0.0
 13
468.30339367142392
 23
146.56595408827769
 33
0.0
  0
INSERT
  5
23C3
  8
标注
  2
*U49
 10
0.0
 20
0.0
 30
0.0
  0
POINT
  5
23C4
  8
DEFPOINTS
 62
     0
 10
438.30339367154392
 20
149.66232815599199
 30
0.0
  0
POINT
  5
23C5
  8
DEFPOINTS
 62
     0
 10
468.30339367142392
 20
149.66232815599199
 30
0.0
  0
POINT
  5
23C6
  8
DEFPOINTS
 62
     0
 10
468.30339367142392
 20
146.56595408827769
 30
0.0
  0
ENDBLK
  5
23B1
  8
0
  0
BLOCK
  8
0
  2
*U49
 70
     1
 10
0.0
 20
0.0
 30
0.0
  3
*U49
  1

  0
TEXT
  5
41AE
  8
标注
 10
452.59922700481712
 20
146.2409540882777
 30
0.0
 40
0.65
  1
30"
  0
ENDBLK
  5
41B0
  8
0
  0
BLOCK
  8
0
  2
*D50
 70
     1
 10
0.0
 20
0.0
 30
0.0
  3
*D50
  1

  0
LINE
  5
2432
  8
标注
  6
BYBLOCK
 10
469.18339367142391
 20
150.6623281559884
 30
0.0
 11
470.27402386808802
 21
150.6623281559884
 31
0.0
  0
LINE
  5
2433
  8
标注
  6
BYBLOCK
 10
469.18339367142391
 20
166.66232815592471
 30
0.0
 11
470.27402386808802
 21
166.66232815592471
 31
0.0
  0
LINE
  5
2434
  8
标注
  6
BYBLOCK
 10
469.95402386808809
 20
151.31232815598841
 30
0.0
 11
469.95402386808809
 21
157.81232815595661
 31
0.0
  0
LINE
  5
2435
  8
标注
  6
BYBLOCK
 10
469.95402386808809
 20
166.01232815592471
 30
0.0
 11
469.95402386808809
 21
159.5123281559566
 31
0.0
  0
SOLID
  5
2436
  8
标注
 10
469.84569053475479
 20
151.31232815598841
 30
0.0
 11
470.06235720142132
 21
151.31232815598841
 31
0.0
 12
469.95402386808809
 22
150.6623281559884
 32
0.0
 13
469.95402386808809
 23
150.6623281559884
 33
0.0
  0
SOLID
  5
2437
  8
标注
 10
469.84569053475479
 20
166.01232815592471
 30
0.0
 11
470.06235720142132
 21
166.01232815592471
 31
0.0
 12
469.95402386808809
 22
166.66232815592471
 32
0.0
 13
469.95402386808809
 23
166.66232815592471
 33
0.0
  0
INSERT
  5
2438
  8
标注
  2
*U51
 10
0.0
 20
0.0
 30
0.0
  0
POINT
  5
2439
  8
DEFPOINTS
 62
     0
 10
468.30339367142392
 20
150.6623281559884
 30
0.0
  0
POINT
  5
243A
  8
DEFPOINTS
 62
     0
 10
468.30339367142392
 20
166.66232815592471
 30
0.0
  0
POINT
  5
243B
  8
DEFPOINTS
 62
     0
 10
469.95402386808809
 20
166.66232815592471
 30
0.0
  0
ENDBLK
  5
23CB
  8
0
  0
BLOCK
  8
0
  2
*U51
 70
     1
 10
0.0
 20
0.0
 30
0.0
  3
*U51
  1

  0
TEXT
  5
41B6
  8
标注
 10
470.27902386808802
 20
158.01232815595671
 30
0.0
 40
0.65
  1
16"
 50
90.0
  0
ENDBLK
  5
41B8
  8
0
  0
BLOCK
  8
0
  2
*D52
 70
     1
 10
0.0
 20
0.0
 30
0.0
  3
*D52
  1

  0
LINE
  5
2490
  8
标注
  6
BYBLOCK
 10
469.18339367142391
 20
149.66232815599199
 30
0.0
 11
471.57906396464227
 21
149.66232815599199
 31
0.0
  0
LINE
  5
2491
  8
标注
  6
BYBLOCK
 10
469.18339367142391
 20
167.66232815591931
 30
0.0
 11
471.57906396464227
 21
167.66232815591931
 31
0.0
  0
LINE
  5
2492
  8
标注
  6
BYBLOCK
 10
471.25906396464239
 20
150.31232815599199
 30
0.0
 11
471.25906396464239
 21
157.8123281559557
 31
0.0
  0
LINE
  5
2493
  8
标注
  6
BYBLOCK
 10
471.25906396464239
 20
167.01232815591931
 30
0.0
 11
471.25906396464239
 21
159.51232815595569
 31
0.0
  0
SOLID
  5
2494
  8
标注
 10
471.15073063130887
 20
150.31232815599199
 30
0.0
 11
471.36739729797569
 21
150.31232815599199
 31
0.0
 12
471.25906396464239
 22
149.66232815599199
 32
0.0
 13
471.25906396464239
 23
149.66232815599199
 33
0.0
  0
SOLID
  5
2495
  8
标注
 10
471.15073063130887
 20
167.01232815591931
 30
0.0
 11
471.36739729797569
 21
167.01232815591931
 31
0.0
 12
471.25906396464239
 22
167.66232815591931
 32
0.0
 13
471.25906396464239
 23
167.66232815591931
 33
0.0
  0
INSERT
  5
2496
  8
标注
  2
*U53
 10
0.0
 20
0.0
 30
0.0
  0
POINT
  5
2497
  8
DEFPOINTS
 62
     0
 10
468.30339367142392
 20
149.66232815599199
 30
0.0
  0
POINT
  5
2498
  8
DEFPOINTS
 62
     0
 10
468.30339367142392
 20
167.66232815591931
 30
0.0
  0
POINT
  5
2499
  8
DEFPOINTS
 62
     0
 10
471.25906396464239
 20
167.66232815591931
 30
0.0
  0
ENDBLK
  5
23E5
  8
0
  0
BLOCK
  8
0
  2
*U53
 70
     1
 10
0.0
 20
0.0
 30
0.0
  3
*U53
  1

  0
TEXT
  5
41BE
  8
标注
 10
471.58406396464221
 20
158.0123281559558
 30
0.0
 40
0.65
  1
18"
 50
90.0
  0
ENDBLK
  5
41C0
  8
0
  0
BLOCK
  8
0
  2
*D54
 70
     1
 10
0.0
 20
0.0
 30
0.0
  3
*D54
  1

  0
LINE
  5
249A
  8
标注
  6
BYBLOCK
 10
438.55802785390063
 20
116.4931990971385
 30
0.0
 11
438.55802785390063
 21
114.5769542962978
 31
0.0
  0
LINE
  5
249B
  8
标注
  6
BYBLOCK
 10
466.71550816875123
 20
116.4931990971385
 30
0.0
 11
466.71550816875123
 21
114.5769542962978
 31
0.0
  0
LINE
  5
249C
  8
标注
  6
BYBLOCK
 10
439.2080278539006
 20
114.89695429629781
 30
0.0
 11
450.48676801132569
 21
114.89695429629781
 31
0.0
  0
LINE
  5
249D
  8
标注
  6
BYBLOCK
 10
466.06550816875119
 20
114.89695429629781
 30
0.0
 11
454.78676801132582
 21
114.89695429629781
 31
0.0
  0
SOLID
  5
249E
  8
标注
 10
439.2080278539006
 20
115.0052876296311
 30
0.0
 11
439.2080278539006
 21
114.7886209629644
 31
0.0
 12
438.55802785390063
 22
114.89695429629781
 32
0.0
 13
438.55802785390063
 23
114.89695429629781
 33
0.0
  0
SOLID
  5
249F
  8
标注
 10
466.06550816875119
 20
115.0052876296311
 30
0.0
 11
466.06550816875119
 21
114.7886209629644
 31
0.0
 12
466.71550816875123
 22
114.89695429629781
 32
0.0
 13
466.71550816875123
 23
114.89695429629781
 33
0.0
  0
INSERT
  5
24A0
  8
标注
  2
*U55
 10
0.0
 20
0.0
 30
0.0
  0
POINT
  5
24A1
  8
DEFPOINTS
 62
     0
 10
438.55802785390063
 20
117.3731990971385
 30
0.0
  0
POINT
  5
24A2
  8
DEFPOINTS
 62
     0
 10
466.71550816875123
 20
117.3731990971385
 30
0.0
  0
POINT
  5
24A3
  8
DEFPOINTS
 62
     0
 10
466.71550816875123
 20
114.89695429629781
 30
0.0
  0
ENDBLK
  5
245D
  8
0
  0
BLOCK
  8
0
  2
*U55
 70
     1
 10
0.0
 20
0.0
 30
0.0
  3
*U55
  1

  0
TEXT
  5
41C2
  8
标注
 10
450.6867680113258
 20
114.5719542962978
 30
0.0
 40
0.65
  1
28 1/8"
  0
ENDBLK
  5
41C4
  8
0
  0
BLOCK
  8
0
  2
*D56
 70
     1
 10
0.0
 20
0.0
 30
0.0
  3
*D56
  1

  0
LINE
  5
24A4
  8
标注
  6
BYBLOCK
 10
467.59550816875111
 20
117.3731990971385
 30
0.0
 11
469.51547765134109
 21
117.3731990971385
 31
0.0
  0
LINE
  5
24A5
  8
标注
  6
BYBLOCK
 10
467.59550816875111
 20
133.5306794120327
 30
0.0
 11
469.51547765134109
 21
133.5306794120327
 31
0.0
  0
LINE
  5
24A6
  8
标注
  6
BYBLOCK
 10
469.19547765134098
 20
118.0231990971385
 30
0.0
 11
469.19547765134098
 21
123.4102725879189
 31
0.0
  0
LINE
  5
24A7
  8
标注
  6
BYBLOCK
 10
469.19547765134098
 20
132.88067941203269
 30
0.0
 11
469.19547765134098
 21
127.4936059212523
 31
0.0
  0
SOLID
  5
24A8
  8
标注
 10
469.08714431800769
 20
118.0231990971385
 30
0.0
 11
469.3038109846745
 21
118.0231990971385
 31
0.0
 12
469.19547765134098
 22
117.3731990971385
 32
0.0
 13
469.19547765134098
 23
117.3731990971385
 33
0.0
  0
SOLID
  5
24A9
  8
标注
 10
469.08714431800769
 20
132.88067941203269
 30
0.0
 11
469.3038109846745
 21
132.88067941203269
 31
0.0
 12
469.19547765134098
 22
133.5306794120327
 32
0.0
 13
469.19547765134098
 23
133.5306794120327
 33
0.0
  0
INSERT
  5
24AA
  8
标注
  2
*U57
 10
0.0
 20
0.0
 30
0.0
  0
POINT
  5
24AB
  8
DEFPOINTS
 62
     0
 10
466.71550816875123
 20
117.3731990971385
 30
0.0
  0
POINT
  5
24AC
  8
DEFPOINTS
 62
     0
 10
466.71550816875123
 20
133.5306794120327
 30
0.0
  0
POINT
  5
24AD
  8
DEFPOINTS
 62
     0
 10
469.19547765134098
 20
133.5306794120327
 30
0.0
  0
ENDBLK
  5
2477
  8
0
  0
BLOCK
  8
0
  2
*U57
 70
     1
 10
0.0
 20
0.0
 30
0.0
  3
*U57
  1

  0
TEXT
  5
41C6
  8
标注
 10
469.52047765134108
 20
123.610272587919
 30
0.0
 40
0.65
  1
16 1/8"
 50
90.0
  0
ENDBLK
  5
41C8
  8
0
  0
BLOCK
  8
0
  2
*D58
 70
     1
 10
0.0
 20
0.0
 30
0.0
  3
*D58
  1

  0
LINE
  5
27B7
  8
标注
  6
BYBLOCK
 10
493.10512879202167
 20
149.96712274901739
 30
0.0
 11
493.10512879202167
 21
147.48056373752831
 31
0.0
  0
LINE
  5
27B8
  8
标注
  6
BYBLOCK
 10
521.10512879190537
 20
149.96712274901739
 30
0.0
 11
521.10512879190537
 21
147.48056373752831
 31
0.0
  0
LINE
  5
27B9
  8
标注
  6
BYBLOCK
 10
493.75512879202171
 20
147.80056373752831
 30
0.0
 11
506.14679545863009
 21
147.80056373752831
 31
0.0
  0
LINE
  5
27BA
  8
标注
  6
BYBLOCK
 10
520.45512879190539
 20
147.80056373752831
 30
0.0
 11
508.06346212529678
 21
147.80056373752831
 31
0.0
  0
SOLID
  5
27BB
  8
标注
 10
493.75512879202171
 20
147.9088970708616
 30
0.0
 11
493.75512879202171
 21
147.69223040419499
 31
0.0
 12
493.10512879202167
 22
147.80056373752831
 32
0.0
 13
493.10512879202167
 23
147.80056373752831
 33
0.0
  0
SOLID
  5
27BC
  8
标注
 10
520.45512879190539
 20
147.9088970708616
 30
0.0
 11
520.45512879190539
 21
147.69223040419499
 31
0.0
 12
521.10512879190537
 22
147.80056373752831
 32
0.0
 13
521.10512879190537
 23
147.80056373752831
 33
0.0
  0
INSERT
  5
27BD
  8
标注
  2
*U59
 10
0.0
 20
0.0
 30
0.0
  0
POINT
  5
27BE
  8
DEFPOINTS
 62
     0
 10
493.10512879202167
 20
150.84712274901739
 30
0.0
  0
POINT
  5
27BF
  8
DEFPOINTS
 62
     0
 10
521.10512879190537
 20
150.84712274901739
 30
0.0
  0
POINT
  5
27C0
  8
DEFPOINTS
 62
     0
 10
521.10512879190537
 20
147.80056373752831
 30
0.0
  0
ENDBLK
  5
27AB
  8
0
  0
BLOCK
  8
0
  2
*U59
 70
     1
 10
0.0
 20
0.0
 30
0.0
  3
*U59
  1

  0
TEXT
  5
41CA
  8
标注
 10
506.34679545863008
 20
147.47556373752829
 30
0.0
 40
0.65
  1
28"
  0
ENDBLK
  5
41CC
  8
0
  0
BLOCK
  8
0
  2
*D60
 70
     1
 10
0.0
 20
0.0
 30
0.0
  3
*D60
  1

  0
LINE
  5
27D1
  8
标注
  6
BYBLOCK
 10
492.10512879202167
 20
149.30964243406129
 30
0.0
 11
492.10512879202167
 21
146.06518639078871
 31
0.0
  0
LINE
  5
27D2
  8
标注
  6
BYBLOCK
 10
522.10512879190537
 20
149.30964243406129
 30
0.0
 11
522.10512879190537
 21
146.06518639078871
 31
0.0
  0
LINE
  5
27D3
  8
标注
  6
BYBLOCK
 10
492.75512879202159
 20
146.3851863907887
 30
0.0
 11
506.20096212529683
 21
146.3851863907887
 31
0.0
  0
LINE
  5
27D4
  8
标注
  6
BYBLOCK
 10
521.45512879190539
 20
146.3851863907887
 30
0.0
 11
508.00929545863022
 21
146.3851863907887
 31
0.0
  0
SOLID
  5
27D5
  8
标注
 10
492.75512879202159
 20
146.493519724122
 30
0.0
 11
492.75512879202159
 21
146.27685305745541
 31
0.0
 12
492.10512879202167
 22
146.3851863907887
 32
0.0
 13
492.10512879202167
 23
146.3851863907887
 33
0.0
  0
SOLID
  5
27D6
  8
标注
 10
521.45512879190539
 20
146.493519724122
 30
0.0
 11
521.45512879190539
 21
146.27685305745541
 31
0.0
 12
522.10512879190537
 22
146.3851863907887
 32
0.0
 13
522.10512879190537
 23
146.3851863907887
 33
0.0
  0
INSERT
  5
27D7
  8
标注
  2
*U61
 10
0.0
 20
0.0
 30
0.0
  0
POINT
  5
27D8
  8
DEFPOINTS
 62
     0
 10
492.10512879202167
 20
150.18964243406131
 30
0.0
  0
POINT
  5
27D9
  8
DEFPOINTS
 62
     0
 10
522.10512879190537
 20
150.18964243406131
 30
0.0
  0
POINT
  5
27DA
  8
DEFPOINTS
 62
     0
 10
522.10512879190537
 20
146.3851863907887
 30
0.0
  0
ENDBLK
  5
27C5
  8
0
  0
BLOCK
  8
0
  2
*U61
 70
     1
 10
0.0
 20
0.0
 30
0.0
  3
*U61
  1

  0
TEXT
  5
41CE
  8
标注
 10
506.40096212529681
 20
146.06018639078869
 30
0.0
 40
0.65
  1
30"
  0
ENDBLK
  5
41D0
  8
0
  0
BLOCK
  8
0
  2
*D62
 70
     1
 10
0.0
 20
0.0
 30
0.0
  3
*D62
  1

  0
LINE
  5
27EB
  8
标注
  6
BYBLOCK
 10
521.39457761080564
 20
150.2565715679174
 30
0.0
 11
523.75030990547259
 21
150.2565715679174
 31
0.0
  0
LINE
  5
27EC
  8
标注
  6
BYBLOCK
 10
521.39457761080564
 20
166.2565715678449
 30
0.0
 11
523.75030990547259
 21
166.2565715678449
 31
0.0
  0
LINE
  5
27ED
  8
标注
  6
BYBLOCK
 10
523.43030990547254
 20
150.90657156791741
 30
0.0
 11
523.43030990547254
 21
157.40657156788109
 31
0.0
  0
LINE
  5
27EE
  8
标注
  6
BYBLOCK
 10
523.43030990547254
 20
165.6065715678449
 30
0.0
 11
523.43030990547254
 21
159.1065715678811
 31
0.0
  0
SOLID
  5
27EF
  8
标注
 10
523.32197657213919
 20
150.90657156791741
 30
0.0
 11
523.53864323880566
 21
150.90657156791741
 31
0.0
 12
523.43030990547254
 22
150.2565715679174
 32
0.0
 13
523.43030990547254
 23
150.2565715679174
 33
0.0
  0
SOLID
  5
27F0
  8
标注
 10
523.32197657213919
 20
165.6065715678449
 30
0.0
 11
523.53864323880566
 21
165.6065715678449
 31
0.0
 12
523.43030990547254
 22
166.2565715678449
 32
0.0
 13
523.43030990547254
 23
166.2565715678449
 33
0.0
  0
INSERT
  5
27F1
  8
标注
  2
*U63
 10
0.0
 20
0.0
 30
0.0
  0
POINT
  5
27F2
  8
DEFPOINTS
 62
     0
 10
520.51457761080565
 20
150.2565715679174
 30
0.0
  0
POINT
  5
27F3
  8
DEFPOINTS
 62
     0
 10
520.51457761080565
 20
166.2565715678449
 30
0.0
  0
POINT
  5
27F4
  8
DEFPOINTS
 62
     0
 10
523.43030990547254
 20
166.2565715678449
 30
0.0
  0
ENDBLK
  5
27DF
  8
0
  0
BLOCK
  8
0
  2
*U63
 70
     1
 10
0.0
 20
0.0
 30
0.0
  3
*U63
  1

  0
TEXT
  5
41D2
  8
标注
 10
523.75530990547225
 20
157.60657156788119
 30
0.0
 40
0.65
  1
16"
 50
90.0
  0
ENDBLK
  5
41D4
  8
0
  0
BLOCK
  8
0
  2
*D64
 70
     1
 10
0.0
 20
0.0
 30
0.0
  3
*D64
  1

  0
LINE
  5
2805
  8
标注
  6
BYBLOCK
 10
521.7265749629488
 20
149.25657156793221
 30
0.0
 11
525.12190195706955
 21
149.25657156793221
 31
0.0
  0
LINE
  5
2806
  8
标注
  6
BYBLOCK
 10
521.7265749629488
 20
167.2565715678449
 30
0.0
 11
525.12190195706955
 21
167.2565715678449
 31
0.0
  0
LINE
  5
2807
  8
标注
  6
BYBLOCK
 10
524.80190195706962
 20
149.90657156793219
 30
0.0
 11
524.80190195706962
 21
157.40657156788851
 31
0.0
  0
LINE
  5
2808
  8
标注
  6
BYBLOCK
 10
524.80190195706962
 20
166.6065715678449
 30
0.0
 11
524.80190195706962
 21
159.10657156788841
 31
0.0
  0
SOLID
  5
2809
  8
标注
 10
524.69356862373616
 20
149.90657156793219
 30
0.0
 11
524.91023529040285
 21
149.90657156793219
 31
0.0
 12
524.80190195706962
 22
149.25657156793221
 32
0.0
 13
524.80190195706962
 23
149.25657156793221
 33
0.0
  0
SOLID
  5
280A
  8
标注
 10
524.69356862373616
 20
166.6065715678449
 30
0.0
 11
524.91023529040285
 21
166.6065715678449
 31
0.0
 12
524.80190195706962
 22
167.2565715678449
 32
0.0
 13
524.80190195706962
 23
167.2565715678449
 33
0.0
  0
INSERT
  5
280B
  8
标注
  2
*U65
 10
0.0
 20
0.0
 30
0.0
  0
POINT
  5
280C
  8
DEFPOINTS
 62
     0
 10
520.84657496294881
 20
149.25657156793221
 30
0.0
  0
POINT
  5
280D
  8
DEFPOINTS
 62
     0
 10
520.84657496294881
 20
167.2565715678449
 30
0.0
  0
POINT
  5
280E
  8
DEFPOINTS
 62
     0
 10
524.80190195706962
 20
167.2565715678449
 30
0.0
  0
ENDBLK
  5
27F9
  8
0
  0
BLOCK
  8
0
  2
*U65
 70
     1
 10
0.0
 20
0.0
 30
0.0
  3
*U65
  1

  0
TEXT
  5
41D6
  8
标注
 10
525.12690195706955
 20
157.60657156788861
 30
0.0
 40
0.65
  1
18"
 50
90.0
  0
ENDBLK
  5
41D8
  8
0
  0
BLOCK
  8
0
  2
*D66
 70
     1
 10
0.0
 20
0.0
 30
0.0
  3
*D66
  1

  0
LINE
  5
281B
  8
标注
  6
BYBLOCK
 10
494.08293475976382
 20
151.44155639280041
 30
0.0
 11
493.72813029098199
 21
150.8969337813229
 31
0.0
  0
INSERT
  5
281C
  8
标注
  2
*U67
 10
0.0
 20
0.0
 30
0.0
  0
SOLID
  5
281D
  8
标注
 10
493.63735985573578
 20
150.95606785945321
 30
0.0
 11
493.81890072622838
 21
150.83779970319259
 31
0.0
 12
493.37332582220029
 22
150.35231116984551
 32
0.0
 13
493.37332582220029
 23
150.35231116984551
 33
0.0
  0
POINT
  5
281E
  8
DEFPOINTS
 62
     0
 10
493.37332582220029
 20
150.35231116984551
 30
0.0
  0
POINT
  5
281F
  8
DEFPOINTS
 62
     0
 10
493.695679973121
 20
150.84712274901699
 30
0.0
  0
ENDBLK
  5
2814
  8
0
  0
BLOCK
  8
0
  2
*U67
 70
     1
 10
0.0
 20
0.0
 30
0.0
  3
*U67
  1

  0
TEXT
  5
41DA
  8
标注
 10
494.46441667128153
 20
151.43173034655649
 30
0.0
 40
0.65
  1
R5/8"
 50
56.917024066183728
  0
ENDBLK
  5
41DC
  8
0
  0
BLOCK
  8
0
  2
*D68
 70
     1
 10
0.0
 20
0.0
 30
0.0
  3
*D68
  1

  0
LINE
  5
284F
  8
标注
  6
BYBLOCK
 10
522.98512879190525
 20
186.91878252606739
 30
0.0
 11
524.05854909304674
 21
186.91878252606739
 31
0.0
  0
LINE
  5
2850
  8
标注
  6
BYBLOCK
 10
522.49203267072789
 20
176.9164935258253
 30
0.0
 11
524.05854909304674
 21
176.9164935258253
 31
0.0
  0
LINE
  5
2851
  8
标注
  6
BYBLOCK
 10
523.73854909304646
 20
186.26878252606741
 30
0.0
 11
523.73854909304646
 21
182.6555607413068
 31
0.0
  0
LINE
  5
2852
  8
标注
  6
BYBLOCK
 10
523.73854909304646
 20
177.56649352582519
 30
0.0
 11
523.73854909304646
 21
181.06389407463999
 31
0.0
  0
SOLID
  5
2853
  8
标注
 10
523.63021575971334
 20
186.26878252606741
 30
0.0
 11
523.84688242638003
 21
186.26878252606741
 31
0.0
 12
523.73854909304646
 22
186.91878252606739
 32
0.0
 13
523.73854909304646
 23
186.91878252606739
 33
0.0
  0
SOLID
  5
2854
  8
标注
 10
523.63021575971334
 20
177.56649352582519
 30
0.0
 11
523.84688242638003
 21
177.56649352582519
 31
0.0
 12
523.73854909304646
 22
176.9164935258253
 32
0.0
 13
523.73854909304646
 23
176.9164935258253
 33
0.0
  0
INSERT
  5
2855
  8
标注
  2
*U69
 10
0.0
 20
0.0
 30
0.0
  0
POINT
  5
2856
  8
DEFPOINTS
 62
     0
 10
522.10512879190537
 20
186.91878252606739
 30
0.0
  0
POINT
  5
2857
  8
DEFPOINTS
 62
     0
 10
521.6120326707279
 20
176.9164935258253
 30
0.0
  0
POINT
  5
2858
  8
DEFPOINTS
 62
     0
 10
523.73854909304646
 20
176.9164935258253
 30
0.0
  0
ENDBLK
  5
2824
  8
0
  0
BLOCK
  8
0
  2
*U69
 70
     1
 10
0.0
 20
0.0
 30
0.0
  3
*U69
  1

  0
TEXT
  5
41DE
  8
标注
 10
524.06354909304662
 20
181.26389407464021
 30
0.0
 40
0.65
  1
10"
 50
90.0
  0
ENDBLK
  5
41E0
  8
0
  0
BLOCK
  8
0
  2
*D70
 70
     1
 10
0.0
 20
0.0
 30
0.0
  3
*D70
  1

  0
LINE
  5
2868
  8
标注
  6
BYBLOCK
 10
494.09635291246309
 20
116.1053369698632
 30
0.0
 11
494.09635291246309
 21
113.97048443521911
 31
0.0
  0
LINE
  5
2869
  8
标注
  6
BYBLOCK
 10
522.25383322730738
 20
116.1053369698632
 30
0.0
 11
522.25383322730738
 21
113.97048443521911
 31
0.0
  0
LINE
  5
286A
  8
标注
  6
BYBLOCK
 10
494.74635291246312
 20
114.2904844352191
 30
0.0
 11
506.02509306988537
 21
114.2904844352191
 31
0.0
  0
LINE
  5
286B
  8
标注
  6
BYBLOCK
 10
521.60383322730752
 20
114.2904844352191
 30
0.0
 11
510.32509306988538
 21
114.2904844352191
 31
0.0
  0
SOLID
  5
286C
  8
标注
 10
494.74635291246312
 20
114.39881776855241
 30
0.0
 11
494.74635291246312
 21
114.18215110188579
 31
0.0
 12
494.09635291246309
 22
114.2904844352191
 32
0.0
 13
494.09635291246309
 23
114.2904844352191
 33
0.0
  0
SOLID
  5
286D
  8
标注
 10
521.60383322730752
 20
114.39881776855241
 30
0.0
 11
521.60383322730752
 21
114.18215110188579
 31
0.0
 12
522.25383322730738
 22
114.2904844352191
 32
0.0
 13
522.25383322730738
 23
114.2904844352191
 33
0.0
  0
INSERT
  5
286E
  8
标注
  2
*U71
 10
0.0
 20
0.0
 30
0.0
  0
POINT
  5
286F
  8
DEFPOINTS
 62
     0
 10
494.09635291246309
 20
116.9853369698632
 30
0.0
  0
POINT
  5
2870
  8
DEFPOINTS
 62
     0
 10
522.25383322730738
 20
116.9853369698632
 30
0.0
  0
POINT
  5
2871
  8
DEFPOINTS
 62
     0
 10
522.25383322730738
 20
114.2904844352191
 30
0.0
  0
ENDBLK
  5
285C
  8
0
  0
BLOCK
  8
0
  2
*U71
 70
     1
 10
0.0
 20
0.0
 30
0.0
  3
*U71
  1

  0
TEXT
  5
41E2
  8
标注
 10
506.22509306988542
 20
113.9654844352191
 30
0.0
 40
0.65
  1
28 1/8"
  0
ENDBLK
  5
41E4
  8
0
  0
BLOCK
  8
0
  2
*D72
 70
     1
 10
0.0
 20
0.0
 30
0.0
  3
*D72
  1

  0
LINE
  5
2882
  8
标注
  6
BYBLOCK
 10
522.46454188872735
 20
116.3160456312709
 30
0.0
 11
524.99737237509692
 21
116.3160456312709
 31
0.0
  0
LINE
  5
2883
  8
标注
  6
BYBLOCK
 10
522.46454188872735
 20
132.4735259461855
 30
0.0
 11
524.99737237509692
 21
132.4735259461855
 31
0.0
  0
LINE
  5
2884
  8
标注
  6
BYBLOCK
 10
524.67737237509675
 20
116.9660456312709
 30
0.0
 11
524.67737237509675
 21
122.3531191220615
 31
0.0
  0
LINE
  5
2885
  8
标注
  6
BYBLOCK
 10
524.67737237509675
 20
131.8235259461855
 30
0.0
 11
524.67737237509675
 21
126.4364524553949
 31
0.0
  0
SOLID
  5
2886
  8
标注
 10
524.56903904176363
 20
116.9660456312709
 30
0.0
 11
524.78570570843033
 21
116.9660456312709
 31
0.0
 12
524.67737237509675
 22
116.3160456312709
 32
0.0
 13
524.67737237509675
 23
116.3160456312709
 33
0.0
  0
SOLID
  5
2887
  8
标注
 10
524.56903904176363
 20
131.8235259461855
 30
0.0
 11
524.78570570843033
 21
131.8235259461855
 31
0.0
 12
524.67737237509675
 22
132.4735259461855
 32
0.0
 13
524.67737237509675
 23
132.4735259461855
 33
0.0
  0
INSERT
  5
2888
  8
标注
  2
*U73
 10
0.0
 20
0.0
 30
0.0
  0
POINT
  5
2889
  8
DEFPOINTS
 62
     0
 10
521.58454188872736
 20
116.3160456312709
 30
0.0
  0
POINT
  5
288A
  8
DEFPOINTS
 62
     0
 10
521.58454188872736
 20
132.4735259461855
 30
0.0
  0
POINT
  5
288B
  8
DEFPOINTS
 62
     0
 10
524.67737237509675
 20
132.4735259461855
 30
0.0
  0
ENDBLK
  5
2876
  8
0
  0
BLOCK
  8
0
  2
*U73
 70
     1
 10
0.0
 20
0.0
 30
0.0
  3
*U73
  1

  0
TEXT
  5
41E6
  8
标注
 10
525.00237237509691
 20
122.5531191220616
 30
0.0
 40
0.65
  1
16 1/8"
 50
90.0
  0
ENDBLK
  5
41E8
  8
0
  0
BLOCK
  8
0
  2
*D74
 70
     1
 10
0.0
 20
0.0
 30
0.0
  3
*D74
  1

  0
LINE
  5
2976
  8
标注
  6
BYBLOCK
 10
495.24859940403252
 20
117.3909818093364
 30
0.0
 11
494.75087221453077
 21
116.972929605861
 31
0.0
  0
INSERT
  5
2977
  8
标注
  2
*U75
 10
0.0
 20
0.0
 30
0.0
  0
SOLID
  5
2978
  8
标注
 10
494.68119684728481
 20
117.05588413744459
 30
0.0
 11
494.82054758177668
 21
116.8899750742774
 31
0.0
 12
494.25314502502891
 22
116.5548774023857
 32
0.0
 13
494.25314502502891
 23
116.5548774023857
 33
0.0
  0
POINT
  5
2979
  8
DEFPOINTS
 62
     0
 10
494.25314502502891
 20
116.5548774023857
 30
0.0
  0
POINT
  5
297A
  8
DEFPOINTS
 62
     0
 10
494.7656442510434
 20
116.9853369698632
 30
0.0
  0
ENDBLK
  5
296F
  8
0
  0
BLOCK
  8
0
  2
*U75
 70
     1
 10
0.0
 20
0.0
 30
0.0
  3
*U75
  1

  0
TEXT
  5
41EA
  8
标注
 10
495.6107723333094
 20
117.27074966180869
 30
0.0
 40
0.65
  1
R5/8"
 50
40.027651560419649
  0
ENDBLK
  5
41EC
  8
0
  0
BLOCK
  8
0
  2
*D76
 70
     1
 10
0.0
 20
0.0
 30
0.0
  3
*D76
  1

  0
LINE
  5
2C0D
  8
标注
  6
BYBLOCK
 10
578.71677571527357
 20
186.9750479210422
 30
0.0
 11
579.77235249253033
 21
186.9750479210422
 31
0.0
  0
LINE
  5
2C0E
  8
标注
  6
BYBLOCK
 10
578.51370214230406
 20
177.91628020455451
 30
0.0
 11
579.77235249253033
 21
177.91628020455451
 31
0.0
  0
LINE
  5
2C0F
  8
标注
  6
BYBLOCK
 10
579.45235249253028
 20
186.32504792104211
 30
0.0
 11
579.45235249253028
 21
183.07899739613171
 31
0.0
  0
LINE
  5
2C10
  8
标注
  6
BYBLOCK
 10
579.45235249253028
 20
178.56628020455449
 30
0.0
 11
579.45235249253028
 21
181.812330729465
 31
0.0
  0
SOLID
  5
2C11
  8
标注
 10
579.34401915919682
 20
186.32504792104211
 30
0.0
 11
579.56068582586352
 21
186.32504792104211
 31
0.0
 12
579.45235249253028
 22
186.9750479210422
 32
0.0
 13
579.45235249253028
 23
186.9750479210422
 33
0.0
  0
SOLID
  5
2C12
  8
标注
 10
579.34401915919682
 20
178.56628020455449
 30
0.0
 11
579.56068582586352
 21
178.56628020455449
 31
0.0
 12
579.45235249253028
 22
177.91628020455451
 32
0.0
 13
579.45235249253028
 23
177.91628020455451
 33
0.0
  0
INSERT
  5
2C13
  8
标注
  2
*U77
 10
0.0
 20
0.0
 30
0.0
  0
POINT
  5
2C14
  8
DEFPOINTS
 62
     0
 10
577.83677571527335
 20
186.9750479210422
 30
0.0
  0
POINT
  5
2C15
  8
DEFPOINTS
 62
     0
 10
577.63370214230406
 20
177.91628020455451
 30
0.0
  0
POINT
  5
2C16
  8
DEFPOINTS
 62
     0
 10
579.45235249253028
 20
177.91628020455451
 30
0.0
  0
ENDBLK
  5
2BF6
  8
0
  0
BLOCK
  8
0
  2
*U77
 70
     1
 10
0.0
 20
0.0
 30
0.0
  3
*U77
  1

  0
TEXT
  5
41F2
  8
标注
 10
579.77735249253021
 20
182.01233072946511
 30
0.0
 40
0.65
  1
9"
 50
90.0
  0
ENDBLK
  5
41F4
  8
0
  0
BLOCK
  8
0
  2
*D78
 70
     1
 10
0.0
 20
0.0
 30
0.0
  3
*D78
  1

  0
LINE
  5
2D42
  8
标注
  6
BYBLOCK
 10
548.83677571540409
 20
150.81466928043719
 30
0.0
 11
548.83677571540409
 21
147.98123919182959
 31
0.0
  0
LINE
  5
2D43
  8
标注
  6
BYBLOCK
 10
576.83677571528801
 20
150.81466928043719
 30
0.0
 11
576.83677571528801
 21
147.98123919182959
 31
0.0
  0
LINE
  5
2D44
  8
标注
  6
BYBLOCK
 10
549.48677571540395
 20
148.30123919182961
 30
0.0
 11
561.87844238201274
 21
148.30123919182961
 31
0.0
  0
LINE
  5
2D45
  8
标注
  6
BYBLOCK
 10
576.18677571528804
 20
148.30123919182961
 30
0.0
 11
563.79510904867948
 21
148.30123919182961
 31
0.0
  0
SOLID
  5
2D46
  8
标注
 10
549.48677571540395
 20
148.4095725251629
 30
0.0
 11
549.48677571540395
 21
148.19290585849629
 31
0.0
 12
548.83677571540409
 22
148.30123919182961
 32
0.0
 13
548.83677571540409
 23
148.30123919182961
 33
0.0
  0
SOLID
  5
2D47
  8
标注
 10
576.18677571528804
 20
148.4095725251629
 30
0.0
 11
576.18677571528804
 21
148.19290585849629
 31
0.0
 12
576.83677571528801
 22
148.30123919182961
 32
0.0
 13
576.83677571528801
 23
148.30123919182961
 33
0.0
  0
INSERT
  5
2D48
  8
标注
  2
*U79
 10
0.0
 20
0.0
 30
0.0
  0
POINT
  5
2D49
  8
DEFPOINTS
 62
     0
 10
548.83677571540409
 20
151.6946692804371
 30
0.0
  0
POINT
  5
2D4A
  8
DEFPOINTS
 62
     0
 10
576.83677571528801
 20
151.6946692804371
 30
0.0
  0
POINT
  5
2D4B
  8
DEFPOINTS
 62
     0
 10
576.83677571528801
 20
148.30123919182961
 30
0.0
  0
ENDBLK
  5
2D11
  8
0
  0
BLOCK
  8
0
  2
*U79
 70
     1
 10
0.0
 20
0.0
 30
0.0
  3
*U79
  1

  0
TEXT
  5
41FA
  8
标注
 10
562.07844238201267
 20
147.97623919182959
 30
0.0
 40
0.65
  1
28"
  0
ENDBLK
  5
41FC
  8
0
  0
BLOCK
  8
0
  2
*D80
 70
     1
 10
0.0
 20
0.0
 30
0.0
  3
*D80
  1

  0
LINE
  5
2D37
  8
标注
  6
BYBLOCK
 10
547.83677571540431
 20
150.1571889654812
 30
0.0
 11
547.83677571540431
 21
146.65394029972501
 31
0.0
  0
LINE
  5
2D38
  8
标注
  6
BYBLOCK
 10
577.83677571527335
 20
150.1571889654812
 30
0.0
 11
577.83677571527335
 21
146.65394029972501
 31
0.0
  0
LINE
  5
2D39
  8
标注
  6
BYBLOCK
 10
548.48677571540418
 20
146.97394029972489
 30
0.0
 11
561.93260904867225
 21
146.97394029972489
 31
0.0
  0
LINE
  5
2D3A
  8
标注
  6
BYBLOCK
 10
577.18677571527326
 20
146.97394029972489
 30
0.0
 11
563.74094238200564
 21
146.97394029972489
 31
0.0
  0
SOLID
  5
2D3B
  8
标注
 10
548.48677571540418
 20
147.08227363305829
 30
0.0
 11
548.48677571540418
 21
146.8656069663916
 31
0.0
 12
547.83677571540431
 22
146.97394029972489
 32
0.0
 13
547.83677571540431
 23
146.97394029972489
 33
0.0
  0
SOLID
  5
2D3C
  8
标注
 10
577.18677571527326
 20
147.08227363305829
 30
0.0
 11
577.18677571527326
 21
146.8656069663916
 31
0.0
 12
577.83677571527335
 22
146.97394029972489
 32
0.0
 13
577.83677571527335
 23
146.97394029972489
 33
0.0
  0
INSERT
  5
2D3D
  8
标注
  2
*U81
 10
0.0
 20
0.0
 30
0.0
  0
POINT
  5
2D3E
  8
DEFPOINTS
 62
     0
 10
547.83677571540431
 20
151.03718896548119
 30
0.0
  0
POINT
  5
2D3F
  8
DEFPOINTS
 62
     0
 10
577.83677571527335
 20
151.03718896548119
 30
0.0
  0
POINT
  5
2D40
  8
DEFPOINTS
 62
     0
 10
577.83677571527335
 20
146.97394029972489
 30
0.0
  0
ENDBLK
  5
2D2B
  8
0
  0
BLOCK
  8
0
  2
*U81
 70
     1
 10
0.0
 20
0.0
 30
0.0
  3
*U81
  1

  0
TEXT
  5
41F6
  8
标注
 10
562.13260904867207
 20
146.6489402997249
 30
0.0
 40
0.65
  1
30"
  0
ENDBLK
  5
41F8
  8
0
  0
BLOCK
  8
0
  2
*D82
 70
     1
 10
0.0
 20
0.0
 30
0.0
  3
*D82
  1

  0
LINE
  5
2D5B
  8
标注
  6
BYBLOCK
 10
577.12622453418817
 20
151.10411809935209
 30
0.0
 11
579.73474599383405
 21
151.10411809935209
 31
0.0
  0
LINE
  5
2D5C
  8
标注
  6
BYBLOCK
 10
577.12622453418817
 20
167.10411809927959
 30
0.0
 11
579.73474599383405
 21
167.10411809927959
 31
0.0
  0
LINE
  5
2D5D
  8
标注
  6
BYBLOCK
 10
579.41474599383423
 20
151.7541180993521
 30
0.0
 11
579.41474599383423
 21
158.2541180993158
 31
0.0
  0
LINE
  5
2D5E
  8
标注
  6
BYBLOCK
 10
579.41474599383423
 20
166.45411809927961
 30
0.0
 11
579.41474599383423
 21
159.95411809931579
 31
0.0
  0
SOLID
  5
2D5F
  8
标注
 10
579.30641266050088
 20
151.7541180993521
 30
0.0
 11
579.52307932716758
 21
151.7541180993521
 31
0.0
 12
579.41474599383423
 22
151.10411809935209
 32
0.0
 13
579.41474599383423
 23
151.10411809935209
 33
0.0
  0
SOLID
  5
2D60
  8
标注
 10
579.30641266050088
 20
166.45411809927961
 30
0.0
 11
579.52307932716758
 21
166.45411809927961
 31
0.0
 12
579.41474599383423
 22
167.10411809927959
 32
0.0
 13
579.41474599383423
 23
167.10411809927959
 33
0.0
  0
INSERT
  5
2D61
  8
标注
  2
*U83
 10
0.0
 20
0.0
 30
0.0
  0
POINT
  5
2D62
  8
DEFPOINTS
 62
     0
 10
576.24622453418829
 20
151.10411809935209
 30
0.0
  0
POINT
  5
2D63
  8
DEFPOINTS
 62
     0
 10
576.24622453418829
 20
167.10411809927959
 30
0.0
  0
POINT
  5
2D64
  8
DEFPOINTS
 62
     0
 10
579.41474599383423
 20
167.10411809927959
 30
0.0
  0
ENDBLK
  5
2D4F
  8
0
  0
BLOCK
  8
0
  2
*U83
 70
     1
 10
0.0
 20
0.0
 30
0.0
  3
*U83
  1

  0
TEXT
  5
41FE
  8
标注
 10
579.73974599383405
 20
158.45411809931591
 30
0.0
 40
0.65
  1
16"
 50
90.0
  0
ENDBLK
  5
4200
  8
0
  0
BLOCK
  8
0
  2
*D84
 70
     1
 10
0.0
 20
0.0
 30
0.0
  3
*D84
  1

  0
LINE
  5
2D75
  8
标注
  6
BYBLOCK
 10
577.71677571528801
 20
150.10411809935209
 30
0.0
 11
581.0006101861477
 21
150.10411809935209
 31
0.0
  0
LINE
  5
2D76
  8
标注
  6
BYBLOCK
 10
577.71677571528801
 20
168.1041180992938
 30
0.0
 11
581.0006101861477
 21
168.1041180992938
 31
0.0
  0
LINE
  5
2D77
  8
标注
  6
BYBLOCK
 10
580.68061018614765
 20
150.7541180993521
 30
0.0
 11
580.68061018614765
 21
158.25411809932291
 31
0.0
  0
LINE
  5
2D78
  8
标注
  6
BYBLOCK
 10
580.68061018614765
 20
167.45411809929379
 30
0.0
 11
580.68061018614765
 21
159.9541180993229
 31
0.0
  0
SOLID
  5
2D79
  8
标注
 10
580.57227685281441
 20
150.7541180993521
 30
0.0
 11
580.78894351948111
 21
150.7541180993521
 31
0.0
 12
580.68061018614765
 22
150.10411809935209
 32
0.0
 13
580.68061018614765
 23
150.10411809935209
 33
0.0
  0
SOLID
  5
2D7A
  8
标注
 10
580.57227685281441
 20
167.45411809929379
 30
0.0
 11
580.78894351948111
 21
167.45411809929379
 31
0.0
 12
580.68061018614765
 22
168.1041180992938
 32
0.0
 13
580.68061018614765
 23
168.1041180992938
 33
0.0
  0
INSERT
  5
2D7B
  8
标注
  2
*U85
 10
0.0
 20
0.0
 30
0.0
  0
POINT
  5
2D7C
  8
DEFPOINTS
 62
     0
 10
576.83677571528801
 20
150.10411809935209
 30
0.0
  0
POINT
  5
2D7D
  8
DEFPOINTS
 62
     0
 10
576.83677571528801
 20
168.1041180992938
 30
0.0
  0
POINT
  5
2D7E
  8
DEFPOINTS
 62
     0
 10
580.68061018614765
 20
168.1041180992938
 30
0.0
  0
ENDBLK
  5
2D69
  8
0
  0
BLOCK
  8
0
  2
*U85
 70
     1
 10
0.0
 20
0.0
 30
0.0
  3
*U85
  1

  0
TEXT
  5
4202
  8
标注
 10
581.00561018614758
 20
158.4541180993231
 30
0.0
 40
0.65
  1
18"
 50
90.0
  0
ENDBLK
  5
4204
  8
0
  0
BLOCK
  8
0
  2
*D86
 70
     1
 10
0.0
 20
0.0
 30
0.0
  3
*D86
  1

  0
LINE
  5
2DB6
  8
标注
  6
BYBLOCK
 10
547.98264859056258
 20
116.37181204651429
 30
0.0
 11
547.98264859056258
 21
113.8298044454734
 31
0.0
  0
LINE
  5
2DB7
  8
标注
  6
BYBLOCK
 10
576.14012890541903
 20
116.4437839713965
 30
0.0
 11
576.14012890541903
 21
113.8298044454734
 31
0.0
  0
LINE
  5
2DB8
  8
标注
  6
BYBLOCK
 10
548.63264859056255
 20
114.14980444547341
 30
0.0
 11
559.91138874799083
 21
114.14980444547341
 31
0.0
  0
LINE
  5
2DB9
  8
标注
  6
BYBLOCK
 10
575.49012890541906
 20
114.14980444547341
 30
0.0
 11
564.21138874799055
 21
114.14980444547341
 31
0.0
  0
SOLID
  5
2DBA
  8
标注
 10
548.63264859056255
 20
114.2581377788067
 30
0.0
 11
548.63264859056255
 21
114.0414711121401
 31
0.0
 12
547.98264859056258
 22
114.14980444547341
 32
0.0
 13
547.98264859056258
 23
114.14980444547341
 33
0.0
  0
SOLID
  5
2DBB
  8
标注
 10
575.49012890541906
 20
114.2581377788067
 30
0.0
 11
575.49012890541906
 21
114.0414711121401
 31
0.0
 12
576.14012890541903
 22
114.14980444547341
 32
0.0
 13
576.14012890541903
 23
114.14980444547341
 33
0.0
  0
INSERT
  5
2DBC
  8
标注
  2
*U87
 10
0.0
 20
0.0
 30
0.0
  0
POINT
  5
2DBD
  8
DEFPOINTS
 62
     0
 10
547.98264859056258
 20
117.2518120465142
 30
0.0
  0
POINT
  5
2DBE
  8
DEFPOINTS
 62
     0
 10
576.14012890541903
 20
117.32378397139649
 30
0.0
  0
POINT
  5
2DBF
  8
DEFPOINTS
 62
     0
 10
576.14012890541903
 20
114.14980444547341
 30
0.0
  0
ENDBLK
  5
2D83
  8
0
  0
BLOCK
  8
0
  2
*U87
 70
     1
 10
0.0
 20
0.0
 30
0.0
  3
*U87
  1

  0
TEXT
  5
4206
  8
标注
 10
560.11138874799076
 20
113.8248044454734
 30
0.0
 40
0.65
  1
28 1/8"
  0
ENDBLK
  5
4208
  8
0
  0
BLOCK
  8
0
  2
*D88
 70
     1
 10
0.0
 20
0.0
 30
0.0
  3
*D88
  1

  0
LINE
  5
2DC0
  8
标注
  6
BYBLOCK
 10
576.35083756684116
 20
116.58252070793419
 30
0.0
 11
578.83944165580385
 21
116.58252070793419
 31
0.0
  0
LINE
  5
2DC1
  8
标注
  6
BYBLOCK
 10
576.22792647570589
 20
132.7400010228489
 30
0.0
 11
578.83944165580385
 21
132.7400010228489
 31
0.0
  0
LINE
  5
2DC2
  8
标注
  6
BYBLOCK
 10
578.5194416558038
 20
117.2325207079342
 30
0.0
 11
578.5194416558038
 21
122.6195941987249
 31
0.0
  0
LINE
  5
2DC3
  8
标注
  6
BYBLOCK
 10
578.5194416558038
 20
132.09000102284881
 30
0.0
 11
578.5194416558038
 21
126.7029275320582
 31
0.0
  0
SOLID
  5
2DC4
  8
标注
 10
578.41110832247045
 20
117.2325207079342
 30
0.0
 11
578.62777498913727
 21
117.2325207079342
 31
0.0
 12
578.5194416558038
 22
116.58252070793419
 32
0.0
 13
578.5194416558038
 23
116.58252070793419
 33
0.0
  0
SOLID
  5
2DC5
  8
标注
 10
578.41110832247045
 20
132.09000102284881
 30
0.0
 11
578.62777498913727
 21
132.09000102284881
 31
0.0
 12
578.5194416558038
 22
132.7400010228489
 32
0.0
 13
578.5194416558038
 23
132.7400010228489
 33
0.0
  0
INSERT
  5
2DC6
  8
标注
  2
*U89
 10
0.0
 20
0.0
 30
0.0
  0
POINT
  5
2DC7
  8
DEFPOINTS
 62
     0
 10
575.47083756684117
 20
116.58252070793419
 30
0.0
  0
POINT
  5
2DC8
  8
DEFPOINTS
 62
     0
 10
575.34792647570589
 20
132.7400010228489
 30
0.0
  0
POINT
  5
2DC9
  8
DEFPOINTS
 62
     0
 10
578.5194416558038
 20
132.7400010228489
 30
0.0
  0
ENDBLK
  5
2D9D
  8
0
  0
BLOCK
  8
0
  2
*U89
 70
     1
 10
0.0
 20
0.0
 30
0.0
  3
*U89
  1

  0
TEXT
  5
420A
  8
标注
 10
578.84444165580362
 20
122.819594198725
 30
0.0
 40
0.65
  1
16 1/8"
 50
90.0
  0
ENDBLK
  5
420C
  8
0
  0
BLOCK
  8
0
  2
*D90
 70
     1
 10
0.0
 20
0.0
 30
0.0
  3
*D90
  1

  0
LINE
  5
2DD4
  8
标注
  6
BYBLOCK
 10
549.91456148046018
 20
152.21034368045699
 30
0.0
 11
549.46815509971134
 21
151.73788062028521
 31
0.0
  0
INSERT
  5
2DD5
  8
标注
  2
*U91
 10
0.0
 20
0.0
 30
0.0
  0
SOLID
  5
2DD6
  8
标注
 10
549.38941125634915
 20
151.81228168374329
 30
0.0
 11
549.54689894307342
 21
151.66347955682701
 31
0.0
 12
549.02174871896284
 22
151.26541756011341
 32
0.0
 13
549.02174871896284
 23
151.26541756011341
 33
0.0
  0
POINT
  5
2DD7
  8
DEFPOINTS
 62
     0
 10
549.02174871896284
 20
151.26541756011341
 30
0.0
  0
POINT
  5
2DD8
  8
DEFPOINTS
 62
     0
 10
549.42732689650393
 20
151.69466928043741
 30
0.0
  0
ENDBLK
  5
2DCD
  8
0
  0
BLOCK
  8
0
  2
*U91
 70
     1
 10
0.0
 20
0.0
 30
0.0
  3
*U91
  1

  0
TEXT
  5
420E
  8
标注
 10
550.28814882000722
 20
152.13251373936609
 30
0.0
 40
0.65
  1
R5/8"
 50
46.624319745140937
  0
ENDBLK
  5
4210
  8
0
  0
BLOCK
  8
0
  2
*D92
 70
     1
 10
0.0
 20
0.0
 30
0.0
  3
*D92
  1

  0
LINE
  5
3106
  8
标注线
 10
140950.04883746279
 20
-70089.996413845307
 30
0.0
 11
140995.11217056721
 21
-70089.996413845307
 31
0.0
  0
LINE
  5
3107
  8
标注线
 10
140924.61133746279
 20
-70115.396413845272
 30
0.0
 11
140995.11217056721
 21
-70115.396413845272
 31
0.0
  0
LINE
  5
3108
  8
标注线
 10
140987.11217056721
 20
-70131.396413845272
 30
0.0
 11
140987.11217056721
 21
-70147.396413845272
 31
0.0
  0
LINE
  5
3109
  8
标注线
 10
140987.11217056721
 20
-70073.996413845307
 30
0.0
 11
140987.11217056721
 21
-70044.551969400869
 31
0.0
  0
LINE
  5
310A
  8
标注线
 10
140987.11217056721
 20
-70115.396413845272
 30
0.0
 11
140987.11217056721
 21
-70089.996413845307
 31
0.0
  0
SOLID
  5
310B
  8
标注线
 10
140984.4455039005
 20
-70131.396413845272
 30
0.0
 11
140989.77883723381
 21
-70131.396413845272
 31
0.0
 12
140987.11217056721
 22
-70115.396413845272
 32
0.0
 13
140987.11217056721
 23
-70115.396413845272
 33
0.0
  0
SOLID
  5
310C
  8
标注线
 10
140984.4455039005
 20
-70073.996413845307
 30
0.0
 11
140989.77883723381
 21
-70073.996413845307
 31
0.0
 12
140987.11217056721
 22
-70089.996413845307
 32
0.0
 13
140987.11217056721
 23
-70089.996413845307
 33
0.0
  0
INSERT
  5
310D
  8
标注
  2
*U93
 10
0.0
 20
0.0
 30
0.0
  0
POINT
  5
310E
  8
DEFPOINTS
 62
     0
 10
140930.04883746279
 20
-70089.996413845307
 30
0.0
  0
POINT
  5
310F
  8
DEFPOINTS
 62
     0
 10
140904.61133746279
 20
-70115.396413845272
 30
0.0
  0
POINT
  5
3110
  8
DEFPOINTS
 62
     0
 10
140987.11217056721
 20
-70115.396413845272
 30
0.0
  0
ENDBLK
  5
3111
  8
0
  0
BLOCK
  8
0
  2
*U93
 70
     1
 10
0.0
 20
0.0
 30
0.0
  3
*U93
  1

  0
TEXT
  5
4212
  8
标注线
 10
140993.7788372339
 20
-70040.107524956402
 30
0.0
 40
16.0
  1
25,4
 50
90.0
  0
ENDBLK
  5
4214
  8
0
  0
BLOCK
  8
0
  2
*D94
 70
     1
 10
0.0
 20
0.0
 30
0.0
  3
*D94
  1

  0
LINE
  5
3114
  8
标注线
 10
140510.91133746281
 20
-70541.796413845339
 30
0.0
 11
140510.91133746281
 21
-70609.630469743832
 31
0.0
  0
LINE
  5
3115
  8
标注线
 10
140142.61133746279
 20
-70541.796413845339
 30
0.0
 11
140142.61133746279
 21
-70609.630469743832
 31
0.0
  0
LINE
  5
3116
  8
标注线
 10
140494.91133746281
 20
-70601.630469743832
 30
0.0
 11
140361.82800412949
 21
-70601.630469743832
 31
0.0
  0
LINE
  5
3117
  8
标注线
 10
140158.61133746279
 20
-70601.630469743832
 30
0.0
 11
140291.6946707961
 21
-70601.630469743832
 31
0.0
  0
SOLID
  5
3118
  8
标注线
 10
140494.91133746281
 20
-70598.96380307716
 30
0.0
 11
140494.91133746281
 21
-70604.297136410503
 31
0.0
 12
140510.91133746281
 22
-70601.630469743832
 32
0.0
 13
140510.91133746281
 23
-70601.630469743832
 33
0.0
  0
SOLID
  5
3119
  8
标注线
 10
140158.61133746279
 20
-70598.96380307716
 30
0.0
 11
140158.61133746279
 21
-70604.297136410503
 31
0.0
 12
140142.61133746279
 22
-70601.630469743832
 32
0.0
 13
140142.61133746279
 23
-70601.630469743832
 33
0.0
  0
INSERT
  5
311A
  8
标注
  2
*U95
 10
0.0
 20
0.0
 30
0.0
  0
POINT
  5
311B
  8
DEFPOINTS
 62
     0
 10
140510.91133746281
 20
-70521.796413845339
 30
0.0
  0
POINT
  5
311C
  8
DEFPOINTS
 62
     0
 10
140142.61133746279
 20
-70521.796413845339
 30
0.0
  0
POINT
  5
311D
  8
DEFPOINTS
 62
     0
 10
140142.61133746279
 20
-70601.630469743832
 30
0.0
  0
ENDBLK
  5
311E
  8
0
  0
BLOCK
  8
0
  2
*U95
 70
     1
 10
0.0
 20
0.0
 30
0.0
  3
*U95
  1

  0
TEXT
  5
4216
  8
标注线
 10
140293.42800412941
 20
-70608.297136410503
 30
0.0
 40
16.0
  1
368,3
  0
ENDBLK
  5
4218
  8
0
  0
BLOCK
  8
0
  2
*D96
 70
     1
 10
0.0
 20
0.0
 30
0.0
  3
*D96
  1

  0
LINE
  5
3121
  8
标注线
 10
140117.2113374628
 20
-70567.196413845377
 30
0.0
 11
140117.2113374628
 21
-70666.813595484695
 31
0.0
  0
LINE
  5
3122
  8
标注线
 10
140930.01133746281
 20
-70567.196413845348
 30
0.0
 11
140930.01133746281
 21
-70666.813595484695
 31
0.0
  0
LINE
  5
3123
  8
标注线
 10
140133.2113374628
 20
-70658.813595484724
 30
0.0
 11
140488.32244857389
 21
-70658.813595484724
 31
0.0
  0
LINE
  5
3124
  8
标注线
 10
140914.01133746281
 20
-70658.813595484724
 30
0.0
 11
140558.90022635169
 21
-70658.813595484724
 31
0.0
  0
SOLID
  5
3125
  8
标注线
 10
140133.2113374628
 20
-70656.146928818038
 30
0.0
 11
140133.2113374628
 21
-70661.480262151381
 31
0.0
 12
140117.2113374628
 22
-70658.813595484724
 32
0.0
 13
140117.2113374628
 23
-70658.813595484724
 33
0.0
  0
SOLID
  5
3126
  8
标注线
 10
140914.01133746281
 20
-70656.146928818038
 30
0.0
 11
140914.01133746281
 21
-70661.480262151381
 31
0.0
 12
140930.01133746281
 22
-70658.813595484724
 32
0.0
 13
140930.01133746281
 23
-70658.813595484724
 33
0.0
  0
INSERT
  5
3127
  8
标注
  2
*U97
 10
0.0
 20
0.0
 30
0.0
  0
POINT
  5
3128
  8
DEFPOINTS
 62
     0
 10
140117.2113374628
 20
-70547.196413845377
 30
0.0
  0
POINT
  5
3129
  8
DEFPOINTS
 62
     0
 10
140930.01133746281
 20
-70547.196413845348
 30
0.0
  0
POINT
  5
312A
  8
DEFPOINTS
 62
     0
 10
140930.01133746281
 20
-70658.813595484724
 30
0.0
  0
ENDBLK
  5
312B
  8
0
  0
BLOCK
  8
0
  2
*U97
 70
     1
 10
0.0
 20
0.0
 30
0.0
  3
*U97
  1

  0
TEXT
  5
421A
  8
标注线
 10
140492.94467079619
 20
-70665.480262151381
 30
0.0
 40
16.0
  1
812,8
  0
ENDBLK
  5
421C
  8
0
  0
BLOCK
  8
0
  2
*D98
 70
     1
 10
0.0
 20
0.0
 30
0.0
  3
*D98
  1

  0
LINE
  5
312E
  8
标注线
 10
140536.3113374628
 20
-70541.796413845339
 30
0.0
 11
140536.3113374628
 21
-70609.630469743832
 31
0.0
  0
LINE
  5
312F
  8
标注线
 10
140904.61133746279
 20
-70541.796413845368
 30
0.0
 11
140904.61133746279
 21
-70609.630469743832
 31
0.0
  0
LINE
  5
3130
  8
标注线
 10
140552.3113374628
 20
-70601.630469743832
 30
0.0
 11
140685.39467079609
 21
-70601.630469743832
 31
0.0
  0
LINE
  5
3131
  8
标注线
 10
140888.61133746279
 20
-70601.630469743832
 30
0.0
 11
140755.5280041295
 21
-70601.630469743832
 31
0.0
  0
SOLID
  5
3132
  8
标注线
 10
140552.3113374628
 20
-70598.96380307716
 30
0.0
 11
140552.3113374628
 21
-70604.297136410503
 31
0.0
 12
140536.3113374628
 22
-70601.630469743832
 32
0.0
 13
140536.3113374628
 23
-70601.630469743832
 33
0.0
  0
SOLID
  5
3133
  8
标注线
 10
140888.61133746279
 20
-70598.96380307716
 30
0.0
 11
140888.61133746279
 21
-70604.297136410503
 31
0.0
 12
140904.61133746279
 22
-70601.630469743832
 32
0.0
 13
140904.61133746279
 23
-70601.630469743832
 33
0.0
  0
INSERT
  5
3134
  8
标注
  2
*U99
 10
0.0
 20
0.0
 30
0.0
  0
POINT
  5
3135
  8
DEFPOINTS
 62
     0
 10
140536.3113374628
 20
-70521.796413845339
 30
0.0
  0
POINT
  5
3136
  8
DEFPOINTS
 62
     0
 10
140904.61133746279
 20
-70521.796413845368
 30
0.0
  0
POINT
  5
3137
  8
DEFPOINTS
 62
     0
 10
140904.61133746279
 20
-70601.630469743832
 30
0.0
  0
ENDBLK
  5
3138
  8
0
  0
BLOCK
  8
0
  2
*U99
 70
     1
 10
0.0
 20
0.0
 30
0.0
  3
*U99
  1

  0
TEXT
  5
421E
  8
标注线
 10
140687.12800412939
 20
-70608.297136410503
 30
0.0
 40
16.0
  1
368,3
  0
ENDBLK
  5
4220
  8
0
  0
BLOCK
  8
0
  2
*D100
 70
     1
 10
0.0
 20
0.0
 30
0.0
  3
*D100
  1

  0
LINE
  5
313B
  8
标注线
 10
140910.01133746281
 20
-69672.303082404396
 30
0.0
 11
140790.1178851889
 21
-69672.303082404396
 31
0.0
  0
LINE
  5
313C
  8
标注线
 10
140793.1510664378
 20
-69926.315547869031
 30
0.0
 11
140790.1178851889
 21
-69926.315547869031
 31
0.0
  0
LINE
  5
313D
  8
标注线
 10
140798.1178851889
 20
-69688.303082404411
 30
0.0
 11
140798.1178851889
 21
-69800.62042624777
 31
0.0
  0
LINE
  5
313E
  8
标注线
 10
140798.1178851889
 20
-69910.315547869031
 30
0.0
 11
140798.1178851889
 21
-69848.798204025545
 31
0.0
  0
SOLID
  5
313F
  8
标注线
 10
140795.4512185223
 20
-69688.303082404411
 30
0.0
 11
140800.78455185561
 21
-69688.303082404411
 31
0.0
 12
140798.1178851889
 22
-69672.303082404396
 32
0.0
 13
140798.1178851889
 23
-69672.303082404396
 33
0.0
  0
SOLID
  5
3140
  8
标注线
 10
140795.4512185223
 20
-69910.315547869031
 30
0.0
 11
140800.78455185561
 21
-69910.315547869031
 31
0.0
 12
140798.1178851889
 22
-69926.315547869031
 32
0.0
 13
140798.1178851889
 23
-69926.315547869031
 33
0.0
  0
INSERT
  5
3141
  8
标注
  2
*U101
 10
0.0
 20
0.0
 30
0.0
  0
POINT
  5
3142
  8
DEFPOINTS
 62
     0
 10
140930.01133746281
 20
-69672.303082404396
 30
0.0
  0
POINT
  5
3143
  8
DEFPOINTS
 62
     0
 10
140813.1510664378
 20
-69926.315547869031
 30
0.0
  0
POINT
  5
3144
  8
DEFPOINTS
 62
     0
 10
140798.1178851889
 20
-69926.315547869031
 30
0.0
  0
ENDBLK
  5
3145
  8
0
  0
BLOCK
  8
0
  2
*U101
 70
     1
 10
0.0
 20
0.0
 30
0.0
  3
*U101
  1

  0
TEXT
  5
4222
  8
标注线
 10
140806.1178851889
 20
-69846.042648469971
 30
0.0
 40
16.0
  1
254
 50
90.0
  0
ENDBLK
  5
4224
  8
0
  0
BLOCK
  8
0
  2
*D102
 70
     1
 10
0.0
 20
0.0
 30
0.0
  3
*D102
  1

  0
LINE
  5
3148
  8
标注线
 10
140253.78915884669
 20
-70256.498351474889
 30
0.0
 11
140268.854382819
 21
-70251.109564351354
 31
0.0
  0
LINE
  5
3149
  8
标注线
 10
140384.66829210659
 20
-70209.683263339233
 30
0.0
 11
140399.733516079
 21
-70204.294476215699
 31
0.0
  0
INSERT
  5
314A
  8
标注
  2
*U103
 10
0.0
 20
0.0
 30
0.0
  0
LINE
  5
314B
  8
标注线
 10
140369.60306813431
 20
-70215.072050462753
 30
0.0
 11
140283.9196067914
 21
-70245.72077722782
 31
0.0
  0
SOLID
  5
314C
  8
标注线
 10
140383.7701609194
 20
-70207.172392677166
 30
0.0
 11
140385.5664232939
 21
-70212.1941340013
 31
0.0
 12
140369.60306813431
 22
-70215.072050462753
 32
0.0
 13
140369.60306813431
 23
-70215.072050462753
 33
0.0
  0
SOLID
  5
314D
  8
标注线
 10
140267.95625163181
 20
-70248.598693689273
 30
0.0
 11
140269.75251400631
 21
-70253.620435013407
 31
0.0
 12
140283.9196067914
 22
-70245.72077722782
 32
0.0
 13
140283.9196067914
 23
-70245.72077722782
 33
0.0
  0
POINT
  5
314E
  8
DEFPOINTS
 62
     0
 10
140283.9196067914
 20
-70245.72077722782
 30
0.0
  0
POINT
  5
314F
  8
DEFPOINTS
 62
     0
 10
140369.60306813431
 20
-70215.072050462753
 30
0.0
  0
ENDBLK
  5
3150
  8
0
  0
BLOCK
  8
0
  2
*U103
 70
     1
 10
0.0
 20
0.0
 30
0.0
  3
*U103
  1

  0
TEXT
  5
4226
  8
标注线
 10
140216.4855729792
 20
-70278.338125233771
 30
0.0
 40
16.0
  1
\U+220591
 50
19.681983273420261
  0
ENDBLK
  5
4228
  8
0
  0
BLOCK
  8
0
  2
*D104
 70
     1
 10
0.0
 20
0.0
 30
0.0
  3
*D104
  1

  0
LINE
  5
3153
  8
标注线
 10
140261.58334542211
 20
-70292.459521675511
 30
0.0
 11
140273.17054400709
 21
-70281.426080283476
 31
0.0
  0
LINE
  5
3154
  8
标注线
 10
140380.3521309183
 20
-70179.366747407184
 30
0.0
 11
140391.9393295034
 21
-70168.333306015134
 31
0.0
  0
INSERT
  5
3155
  8
标注
  2
*U105
 10
0.0
 20
0.0
 30
0.0
  0
LINE
  5
3156
  8
标注线
 10
140368.76493233329
 20
-70190.400188799234
 30
0.0
 11
140284.7577425921
 21
-70270.392638891441
 31
0.0
  0
SOLID
  5
3157
  8
标注线
 10
140378.5132240197
 20
-70177.435547643021
 30
0.0
 11
140382.19103781701
 21
-70181.297947171333
 31
0.0
 12
140368.76493233329
 22
-70190.400188799234
 32
0.0
 13
140368.76493233329
 23
-70190.400188799234
 33
0.0
  0
SOLID
  5
3158
  8
标注线
 10
140271.33163710841
 20
-70279.494880519327
 30
0.0
 11
140275.00945090569
 21
-70283.35728004764
 31
0.0
 12
140284.7577425921
 22
-70270.392638891441
 32
0.0
 13
140284.7577425921
 23
-70270.392638891441
 33
0.0
  0
POINT
  5
3159
  8
DEFPOINTS
 62
     0
 10
140284.7577425921
 20
-70270.392638891441
 30
0.0
  0
POINT
  5
315A
  8
DEFPOINTS
 62
     0
 10
140368.76493233329
 20
-70190.400188799234
 30
0.0
  0
ENDBLK
  5
315B
  8
0
  0
BLOCK
  8
0
  2
*U105
 70
     1
 10
0.0
 20
0.0
 30
0.0
  3
*U105
  1

  0
TEXT
  5
422A
  8
标注线
 10
140227.93548120381
 20
-70335.546013561994
 30
0.0
 40
16.0
  1
\U+2205116
 50
43.597669456804951
  0
ENDBLK
  5
422C
  8
0
  0
BLOCK
  8
0
  2
*D106
 70
     1
 10
0.0
 20
0.0
 30
0.0
  3
*D106
  1

  0
LINE
  5
315E
  8
标注线
 10
140510.91133746281
 20
-70327.795635603194
 30
0.0
 11
140510.91133746281
 21
-70288.486507761962
 31
0.0
  0
LINE
  5
315F
  8
标注线
 10
140536.3113374628
 20
-70327.795635603194
 30
0.0
 11
140536.3113374628
 21
-70288.486507761962
 31
0.0
  0
LINE
  5
3160
  8
标注线
 10
140494.91133746281
 20
-70296.486507761962
 30
0.0
 11
140478.91133746281
 21
-70296.486507761962
 31
0.0
  0
LINE
  5
3161
  8
标注线
 10
140552.3113374628
 20
-70296.486507761962
 30
0.0
 11
140568.3113374628
 21
-70296.486507761962
 31
0.0
  0
LINE
  5
3162
  8
标注线
 10
140510.91133746281
 20
-70296.486507761962
 30
0.0
 11
140536.3113374628
 21
-70296.486507761962
 31
0.0
  0
SOLID
  5
3163
  8
标注线
 10
140494.91133746281
 20
-70293.81984109529
 30
0.0
 11
140494.91133746281
 21
-70299.153174428633
 31
0.0
 12
140510.91133746281
 22
-70296.486507761962
 32
0.0
 13
140510.91133746281
 23
-70296.486507761962
 33
0.0
  0
SOLID
  5
3164
  8
标注线
 10
140552.3113374628
 20
-70293.81984109529
 30
0.0
 11
140552.3113374628
 21
-70299.153174428633
 31
0.0
 12
140536.3113374628
 22
-70296.486507761962
 32
0.0
 13
140536.3113374628
 23
-70296.486507761962
 33
0.0
  0
INSERT
  5
3165
  8
标注
  2
*U107
 10
0.0
 20
0.0
 30
0.0
  0
POINT
  5
3166
  8
DEFPOINTS
 62
     0
 10
140510.91133746281
 20
-70347.795635603208
 30
0.0
  0
POINT
  5
3167
  8
DEFPOINTS
 62
     0
 10
140536.3113374628
 20
-70347.795635603208
 30
0.0
  0
POINT
  5
3168
  8
DEFPOINTS
 62
     0
 10
140536.3113374628
 20
-70296.486507761962
 30
0.0
  0
ENDBLK
  5
3169
  8
0
  0
BLOCK
  8
0
  2
*U107
 70
     1
 10
0.0
 20
0.0
 30
0.0
  3
*U107
  1

  0
TEXT
  5
422E
  8
标注线
 10
140572.7557819073
 20
-70303.153174428633
 30
0.0
 40
16.0
  1
25,4
  0
ENDBLK
  5
4230
  8
0
  0
BLOCK
  8
0
  2
*D108
 70
     1
 10
0.0
 20
0.0
 30
0.0
  3
*D108
  1

  0
LINE
  5
316C
  8
标注
 10
140456.20031952841
 20
-70115.396413845316
 30
0.0
 11
140457.63863789311
 21
-70115.396413845316
 31
0.0
  0
LINE
  5
316D
  8
标注
 10
140448.3281467178
 20
-70230.396413845287
 30
0.0
 11
140457.63863789311
 21
-70230.396413845287
 31
0.0
  0
LINE
  5
316E
  8
标注
 10
140449.63863789311
 20
-70131.396413845316
 30
0.0
 11
140449.63863789311
 21
-70214.396413845287
 31
0.0
  0
LINE
  5
316F
  8
标注
 10
140449.63863789311
 20
-70230.396413845287
 30
0.0
 11
140449.63863789311
 21
-70246.396413845316
 31
0.0
  0
SOLID
  5
3170
  8
标注
 10
140446.97197122639
 20
-70131.396413845316
 30
0.0
 11
140452.3053045597
 21
-70131.396413845316
 31
0.0
 12
140449.63863789311
 22
-70115.396413845316
 32
0.0
 13
140449.63863789311
 23
-70115.396413845316
 33
0.0
  0
SOLID
  5
3171
  8
标注
 10
140446.97197122639
 20
-70214.396413845287
 30
0.0
 11
140452.3053045597
 21
-70214.396413845287
 31
0.0
 12
140449.63863789311
 22
-70230.396413845287
 32
0.0
 13
140449.63863789311
 23
-70230.396413845287
 33
0.0
  0
INSERT
  5
3172
  8
标注
  2
*U109
 10
0.0
 20
0.0
 30
0.0
  0
POINT
  5
3173
  8
DEFPOINTS
 62
     0
 10
140436.20031952841
 20
-70115.396413845316
 30
0.0
  0
POINT
  5
3174
  8
DEFPOINTS
 62
     0
 10
140428.3281467178
 20
-70230.396413845287
 30
0.0
  0
POINT
  5
3175
  8
DEFPOINTS
 62
     0
 10
140449.63863789311
 20
-70230.396413845287
 30
0.0
  0
ENDBLK
  5
3176
  8
0
  0
BLOCK
  8
0
  2
*U109
 70
     1
 10
0.0
 20
0.0
 30
0.0
  3
*U109
  1

  0
TEXT
  5
4232
  8
标注
 10
140457.63863789311
 20
-70285.463080511967
 30
0.0
 40
16.0
  1
115
 50
90.0
  0
ENDBLK
  5
4234
  8
0
  0
BLOCK
  8
0
  2
*D110
 70
     1
 10
0.0
 20
0.0
 30
0.0
  3
*D110
  1

  0
LINE
  5
3179
  8
标注
 10
140140.69435520051
 20
-71345.239826189456
 30
0.0
 11
140140.69435520051
 21
-71384.523738156
 31
0.0
  0
LINE
  5
317A
  8
标注
 10
140906.69435520051
 20
-71345.239826189456
 30
0.0
 11
140906.69435520051
 21
-71384.523738156
 31
0.0
  0
LINE
  5
317B
  8
标注
 10
140156.69435520051
 20
-71376.523738155985
 30
0.0
 11
140490.31032859979
 21
-71376.523738155985
 31
0.0
  0
LINE
  5
317C
  8
标注
 10
140890.69435520051
 20
-71376.523738155985
 30
0.0
 11
140537.86588415541
 21
-71376.523738155985
 31
0.0
  0
SOLID
  5
317D
  8
标注
 10
140156.69435520051
 20
-71373.857071489314
 30
0.0
 11
140156.69435520051
 21
-71379.190404822657
 31
0.0
 12
140140.69435520051
 22
-71376.523738155985
 32
0.0
 13
140140.69435520051
 23
-71376.523738155985
 33
0.0
  0
SOLID
  5
317E
  8
标注
 10
140890.69435520051
 20
-71373.857071489314
 30
0.0
 11
140890.69435520051
 21
-71379.190404822657
 31
0.0
 12
140906.69435520051
 22
-71376.523738155985
 32
0.0
 13
140906.69435520051
 23
-71376.523738155985
 33
0.0
  0
INSERT
  5
317F
  8
标注
  2
*U111
 10
0.0
 20
0.0
 30
0.0
  0
POINT
  5
3180
  8
DEFPOINTS
 62
     0
 10
140140.69435520051
 20
-71325.239826189456
 30
0.0
  0
POINT
  5
3181
  8
DEFPOINTS
 62
     0
 10
140906.69435520051
 20
-71325.239826189456
 30
0.0
  0
POINT
  5
3182
  8
DEFPOINTS
 62
     0
 10
140906.69435520051
 20
-71376.523738155985
 30
0.0
  0
ENDBLK
  5
3183
  8
0
  0
BLOCK
  8
0
  2
*U111
 70
     1
 10
0.0
 20
0.0
 30
0.0
  3
*U111
  1

  0
TEXT
  5
4236
  8
标注
 10
140492.75477304429
 20
-71384.523738156
 30
0.0
 40
16.0
  1
766
  0
ENDBLK
  5
4238
  8
0
  0
BLOCK
  8
0
  2
*D112
 70
     1
 10
0.0
 20
0.0
 30
0.0
  3
*D112
  1

  0
LINE
  5
3186
  8
标注
 10
140926.69435520051
 20
-70914.839826189447
 30
0.0
 11
140972.030841108
 21
-70914.839826189447
 31
0.0
  0
LINE
  5
3187
  8
标注
 10
140926.69435520051
 20
-71325.239826189456
 30
0.0
 11
140972.030841108
 21
-71325.239826189456
 31
0.0
  0
LINE
  5
3188
  8
标注
 10
140964.030841108
 20
-70930.839826189447
 30
0.0
 11
140964.030841108
 21
-71084.395381745009
 31
0.0
  0
LINE
  5
3189
  8
标注
 10
140964.030841108
 20
-71309.239826189456
 30
0.0
 11
140964.030841108
 21
-71155.684270633923
 31
0.0
  0
SOLID
  5
318A
  8
标注
 10
140961.3641744412
 20
-70930.839826189447
 30
0.0
 11
140966.6975077746
 21
-70930.839826189447
 31
0.0
 12
140964.030841108
 22
-70914.839826189447
 32
0.0
 13
140964.030841108
 23
-70914.839826189447
 33
0.0
  0
SOLID
  5
318B
  8
标注
 10
140961.3641744412
 20
-71309.239826189456
 30
0.0
 11
140966.6975077746
 21
-71309.239826189456
 31
0.0
 12
140964.030841108
 22
-71325.239826189456
 32
0.0
 13
140964.030841108
 23
-71325.239826189456
 33
0.0
  0
INSERT
  5
318C
  8
标注
  2
*U113
 10
0.0
 20
0.0
 30
0.0
  0
POINT
  5
318D
  8
DEFPOINTS
 62
     0
 10
140906.69435520051
 20
-70914.839826189447
 30
0.0
  0
POINT
  5
318E
  8
DEFPOINTS
 62
     0
 10
140906.69435520051
 20
-71325.239826189456
 30
0.0
  0
POINT
  5
318F
  8
DEFPOINTS
 62
     0
 10
140964.030841108
 20
-71325.239826189456
 30
0.0
  0
ENDBLK
  5
3190
  8
0
  0
BLOCK
  8
0
  2
*U113
 70
     1
 10
0.0
 20
0.0
 30
0.0
  3
*U113
  1

  0
TEXT
  5
423A
  8
标注
 10
140970.6975077746
 20
-71149.373159522758
 30
0.0
 40
16.0
  1
410,4
 50
90.0
  0
ENDBLK
  5
423C
  8
0
  0
BLOCK
  8
0
  2
A$C23190FA7
 70
     0
 10
0.0
 20
0.0
 30
0.0
  3
A$C23190FA7
  1

  0
LINE
  5
3192
  8
0
 10
812.80003412335645
 20
840.98482483766566
 30
0.0
 11
0.0000341233680956
 21
840.98482483766566
 31
0.0
  0
LINE
  5
3193
  8
0
 10
393.70003412332147
 20
866.38482483771793
 30
0.0
 11
25.400034123333182
 21
866.38482483771793
 31
0.0
  0
LINE
  5
3194
  8
0
 10
25.400034123333182
 20
1272.784824837785
 30
0.0
 11
393.70003412332147
 21
1272.784824837712
 31
0.0
  0
LINE
  5
3195
  8
0
 10
396.70003412332159
 20
1715.8781562786171
 30
0.0
 11
22.400034123333171
 21
1715.878156278646
 31
0.0
  0
LINE
  5
3196
  8
0
 10
25.387534123379741
 20
1117.540836842046
 30
0.0
 11
25.387534123379741
 21
1117.540836842046
 31
0.0
  0
INSERT
  5
3197
  8
标注
  2
*U115
 10
0.0
 20
0.0
 30
0.0
  0
CIRCLE
  5
3198
  8
细实线
 10
209.5500341233564
 20
1157.7848248377411
 30
0.0
 40
55.0
  0
LINE
  5
3199
  8
中心线
 10
209.5500341233564
 20
1281.1119929337731
 30
0.0
 11
209.5500341233564
 21
854.10666354231932
 31
0.0
  0
CIRCLE
  5
319A
  8
0
 10
209.5500341233564
 20
1157.7848248377411
 30
0.0
 40
45.499999999999993
  0
LINE
  5
319B
  8
中心线
 10
311.11684337834589
 20
1157.7848248377411
 30
0.0
 11
110.2800839834963
 21
1157.7848248377411
 31
0.0
  0
LINE
  5
319C
  8
0
 10
0.0000341233389918
 20
1298.1848248377351
 30
0.0
 11
812.80003412335645
 21
1298.1848248377351
 31
0.0
  0
LINE
  5
319D
  8
0
 10
25.400034123333182
 20
1272.78482483777
 30
0.0
 11
160.35487958672451
 21
1188.5067513743561
 31
0.0
  0
LINE
  5
319E
  8
0
 10
393.70003412332147
 20
866.38482483771793
 30
0.0
 11
240.53460400333279
 21
1108.7546664722031
 31
0.0
  0
LINE
  5
319F
  8
0
 10
258.74518865993008
 20
1188.506751374312
 30
0.0
 11
393.70003412332147
 21
1272.784824837712
 31
0.0
  0
LINE
  5
31A0
  8
0
 10
178.56546424329281
 20
1108.7546664722031
 30
0.0
 11
25.400034123333182
 21
866.38482483771793
 31
0.0
  0
DIMENSION
  5
31A1
  8
标注线
  2
*D92
 10
869.90086722775595
 20
1272.78482483777
 30
0.0
 11
869.90086722775595
 21
1373.407047059969
 31
0.0
 12
-140117.2113033394
 22
71388.181238683042
 32
0.0
 70
   128
  3
副本STANDARD
 13
812.83753412333294
 23
1298.1848248377351
 33
0.0
 14
787.40003412336227
 24
1272.78482483777
 34
0.0
 50
90.0
  0
DIMENSION
  5
31A2
  8
标注线
  2
*D102
 10
252.39176479483919
 20
1173.10918822029
 30
0.0
 11
164.3779016187348
 21
1141.626883447052
 31
0.0
 12
-140117.2113033394
 22
71388.181238683042
 32
0.0
 70
     3
  3
副本STANDARD
 15
166.7083034519591
 25
1142.460461455222
 35
0.0
 40
0.0
  0
DIMENSION
  5
31A5
  8
标注线
  2
*D104
 10
251.5536289938839
 20
1197.781049883818
 30
0.0
 11
165.59713449068491
 21
1115.932453140749
 31
0.0
 12
-140117.2113033394
 22
71388.181238683042
 32
0.0
 70
     3
  3
副本STANDARD
 15
167.5464392526421
 25
1117.7885997915971
 35
0.0
 40
0.0
  0
DIMENSION
  5
31A8
  8
标注线
  2
*D94
 10
25.400034123333182
 20
786.55076893921046
 30
0.0
 11
209.55003412332729
 21
786.55076893921046
 31
0.0
 12
-140117.2113033394
 22
71388.181238683042
 32
0.0
  3
副本STANDARD
 13
393.70003412332147
 23
866.38482483771793
 33
0.0
 14
25.400034123333182
 24
866.38482483771793
 34
0.0
  0
DIMENSION
  5
31A9
  8
标注线
  2
*D96
 10
812.80003412335645
 20
729.3676431983331
 30
0.0
 11
406.40003412336222
 21
729.3676431983331
 31
0.0
 12
-140117.2113033394
 22
71388.181238683042
 32
0.0
  3
副本STANDARD
 13
0.0000341233680956
 23
840.98482483766566
 33
0.0
 14
812.80003412335645
 24
840.98482483769453
 34
0.0
  0
LINE
  5
31AA
  8
0
 10
25.400034123333182
 20
1272.78482483777
 30
0.0
 11
25.400034123333182
 21
866.38482483771793
 31
0.0
  0
LINE
  5
31AB
  8
0
 10
393.70003412332147
 20
1272.784824837712
 30
0.0
 11
393.70003412332147
 21
866.38482483771793
 31
0.0
  0
LINE
  5
31AC
  8
0
 10
0.0000341233389918
 20
1298.1848248377351
 30
0.0
 11
0.0000341233680956
 21
840.98482483766566
 31
0.0
  0
LINE
  5
31AD
  8
0
 10
419.10003412334481
 20
866.38482483771793
 30
0.0
 11
787.40003412333294
 21
866.38482483771793
 31
0.0
  0
LINE
  5
31AE
  8
0
 10
787.40003412336227
 20
1272.784824837785
 30
0.0
 11
419.10003412334481
 21
1272.784824837712
 31
0.0
  0
LINE
  5
31AF
  8
0
 10
787.4125341233447
 20
1117.540836842046
 30
0.0
 11
787.4125341233447
 21
1117.540836842046
 31
0.0
  0
INSERT
  5
31B0
  8
标注
  2
*U116
 10
0.0
 20
0.0
 30
0.0
  0
CIRCLE
  5
31B1
  8
细实线
 10
603.2500341233681
 20
1157.7848248377411
 30
0.0
 40
55.0
  0
LINE
  5
31B2
  8
中心线
 10
603.2500341233681
 20
1281.1119929337731
 30
0.0
 11
603.25003412333876
 21
855.36696226395713
 31
0.0
  0
CIRCLE
  5
31B3
  8
0
 10
603.2500341233681
 20
1157.7848248377411
 30
0.0
 40
45.499999999999993
  0
LINE
  5
31B4
  8
中心线
 10
501.68322486832011
 20
1157.7848248377411
 30
0.0
 11
702.51998426317004
 21
1157.7848248377411
 31
0.0
  0
DIMENSION
  5
31B5
  8
标注线
  2
*D98
 10
787.40003412333294
 20
786.55076893921046
 30
0.0
 11
603.25003412333876
 21
786.55076893921046
 31
0.0
 12
-140117.2113033394
 22
71388.181238683042
 32
0.0
  3
副本STANDARD
 13
419.10003412334481
 23
866.38482483771793
 33
0.0
 14
787.40003412333294
 24
866.38482483768905
 34
0.0
 50
180.0
  0
LINE
  5
31B6
  8
0
 10
787.40003412336227
 20
1272.78482483777
 30
0.0
 11
787.40003412333294
 21
866.38482483771793
 31
0.0
  0
LINE
  5
31B7
  8
0
 10
419.10003412334481
 20
1272.784824837712
 30
0.0
 11
419.10003412334481
 21
866.38482483771793
 31
0.0
  0
LINE
  5
31B8
  8
0
 10
812.80003412335645
 20
1298.1848248377351
 30
0.0
 11
812.80003412335645
 21
840.98482483766566
 31
0.0
  0
LINE
  5
31B9
  8
0
 10
393.6875341233681
 20
1715.878156278646
 30
0.0
 11
393.70003412332147
 21
1715.878156278646
 31
0.0
  0
LINE
  5
31BA
  8
中心线
 10
406.40003412333311
 20
1724.2053243746479
 30
0.0
 11
406.40003412333311
 21
1436.834832024105
 31
0.0
  0
LINE
  5
31BB
  8
中心线
 10
406.40003412333311
 20
1312.40333029248
 30
0.0
 11
406.40003412333311
 21
830.44525156747818
 31
0.0
  0
DIMENSION
  5
31BC
  8
标注线
  2
*D106
 10
419.10003412334481
 20
1091.6947309210759
 30
0.0
 11
480.87781190115481
 21
1091.6947309210759
 31
0.0
 12
-140117.2113033394
 22
71388.181238683042
 32
0.0
 70
   128
  3
副本STANDARD
 13
393.70003412332147
 23
1040.385603079844
 33
0.0
 14
419.10003412334481
 24
1040.385603079844
 34
0.0
  0
LINE
  5
31BF
  8
截面层
 10
0.0000341233680956
 20
1715.878156278646
 30
0.0
 11
22.400034123333171
 21
1715.8781562786171
 31
0.0
  0
LINE
  5
31C0
  8
截面层
 10
25.400034123333182
 20
1712.8781562786171
 30
0.0
 11
25.400034123333182
 21
1465.353011025421
 31
0.0
  0
LINE
  5
31C1
  8
截面层
 10
26.78515820499161
 20
1463.857416319835
 30
0.0
 11
149.69593215774509
 21
1459.878156278646
 31
0.0
  0
LINE
  5
31C2
  8
截面层
 10
393.70003412337968
 20
1465.353011025654
 30
0.0
 11
393.70003412332147
 21
1712.8781562786171
 31
0.0
  0
LINE
  5
31C3
  8
截面层
 10
396.70003412332159
 20
1715.8781562786171
 30
0.0
 11
416.1000341232866
 21
1715.878156278588
 31
0.0
  0
LINE
  5
31C4
  8
0
 10
151.55003412332721
 20
1459.878156278646
 30
0.0
 11
267.55003412332741
 21
1459.878156278646
 31
0.0
  0
LINE
  5
31C5
  8
细实线
 10
269.40412283234758
 20
1459.8781562786171
 30
0.0
 11
149.69593215774509
 21
1459.878156278646
 31
0.0
  0
LINE
  5
31C6
  8
中心线
 10
209.55003412332729
 20
1437.476940882407
 30
0.0
 11
209.5500341233564
 21
1522.393033213142
 31
0.0
  0
ARC
  5
31C7
  8
截面层
 10
149.69593215733769
 20
1456.878156278646
 30
0.0
 40
3.0
 50
26.565051065216899
 51
89.999999991662364
  0
ARC
  5
31C8
  8
截面层
 10
269.40413608934608
 20
1456.878156278646
 30
0.0
 40
3.0
 50
90.000000005002576
 51
153.4349486752653
  0
ARC
  5
31C9
  8
截面层
 10
155.47708510633669
 20
1455.378156278646
 30
0.0
 40
1.5
 50
206.5650516468946
 51
269.99999994830671
  0
ARC
  5
31CA
  8
截面层
 10
263.62298314034712
 20
1455.378156278646
 30
0.0
 40
1.5
 50
270.00000005002568
 51
333.43494777291932
  0
LINE
  5
31CB
  8
截面层
 10
264.96462392655673
 20
1454.70733588592
 30
0.0
 11
266.7208545163449
 21
1458.2197970654961
 31
0.0
  0
LINE
  5
31CC
  8
截面层
 10
155.47708510633669
 20
1453.878156278646
 30
0.0
 11
164.5500341233564
 21
1453.878156278646
 31
0.0
  0
LINE
  5
31CD
  8
截面层
 10
254.55003412335651
 20
1452.378156278646
 30
0.0
 11
254.55003412332741
 21
1453.878156278646
 31
0.0
  0
LINE
  5
31CE
  8
截面层
 10
154.1354443201561
 20
1454.70733588592
 30
0.0
 11
152.3792137303389
 21
1458.2197970654961
 31
0.0
  0
LINE
  5
31CF
  8
截面层
 10
164.55003412332721
 20
1452.378156278646
 30
0.0
 11
164.55003412332721
 21
1453.878156278646
 31
0.0
  0
LINE
  5
31D0
  8
截面层
 10
254.55003412332741
 20
1453.878156278646
 30
0.0
 11
263.62298314034712
 21
1453.878156278646
 31
0.0
  0
LINE
  5
31D1
  8
0
  6
CONTINUOUS
 10
164.55003412332721
 20
1453.878156278646
 30
0.0
 11
254.55003412332741
 21
1453.878156278646
 31
0.0
  0
LINE
  5
31D2
  8
截面层
 10
152.79380353365559
 20
1454.036515492669
 30
0.0
 11
151.03757294383831
 21
1457.548976672246
 31
0.0
  0
ARC
  5
31D3
  8
截面层
 10
149.69593215733769
 20
1456.878156278646
 30
0.0
 40
1.5
 50
26.565051065216899
 51
89.999999991662364
  0
LINE
  5
31D4
  8
截面层
 10
26.671342797228139
 20
1462.336846722872
 30
0.0
 11
149.69593215774509
 21
1458.378156278646
 31
0.0
  0
ARC
  5
31D5
  8
截面层
 10
155.47708510633669
 20
1455.378156278646
 30
0.0
 40
3.0
 50
206.5650516468946
 51
269.99999994830671
  0
LINE
  5
31D6
  8
截面层
 10
155.47708510633669
 20
1452.378156278646
 30
0.0
 11
164.5500341233564
 21
1452.378156278646
 31
0.0
  0
LINE
  5
31D7
  8
0
  6
CONTINUOUS
 10
164.55003412332721
 20
1452.378156278646
 30
0.0
 11
254.55003412332741
 21
1452.378156278646
 31
0.0
  0
LINE
  5
31D8
  8
截面层
 10
254.55003412335651
 20
1452.378156278646
 30
0.0
 11
263.62298314034712
 21
1452.378156278646
 31
0.0
  0
ARC
  5
31D9
  8
截面层
 10
263.62298314034712
 20
1455.378156278646
 30
0.0
 40
3.0
 50
270.00000005002568
 51
333.43494777291932
  0
LINE
  5
31DA
  8
截面层
 10
266.30626471305732
 20
1454.036515492669
 30
0.0
 11
268.06249530284538
 21
1457.548976672246
 31
0.0
  0
ARC
  5
31DB
  8
截面层
 10
269.40413608934608
 20
1456.878156278646
 30
0.0
 40
1.5
 50
90.000000005002576
 51
153.4349486752653
  0
LINE
  5
31DC
  8
截面层
 10
395.20003412337979
 20
1465.3281174024889
 30
0.0
 11
395.20003412332147
 21
1712.8781562786171
 31
0.0
  0
LINE
  5
31DD
  8
截面层
 10
396.70003412332159
 20
1714.378156278588
 30
0.0
 11
416.1000341232866
 21
1714.378156278588
 31
0.0
  0
LINE
  5
31DE
  8
截面层
 10
0.0000341233680956
 20
1714.378156278646
 30
0.0
 11
22.400034123333171
 21
1714.378156278588
 31
0.0
  0
LINE
  5
31DF
  8
截面层
 10
23.900034123333171
 20
1712.8781562786171
 30
0.0
 11
23.900034123333171
 21
1465.3281174022561
 31
0.0
  0
LINE
  5
31E0
  8
截面层
 10
0.0000341233680956
 20
1715.878156278646
 30
0.0
 11
0.0000341233680956
 21
1714.378156278646
 31
0.0
  0
ARC
  5
31E1
  8
截面层
 10
22.400034123333171
 20
1712.8781562786171
 30
0.0
 40
3.0
 50
0.0
 51
90.0
  0
ARC
  5
31E2
  8
截面层
 10
396.70003412332159
 20
1712.8781562786171
 30
0.0
 40
3.0
 50
90.0
 51
180.0
  0
ARC
  5
31E3
  8
截面层
 10
396.70003412332159
 20
1712.8781562786171
 30
0.0
 40
1.5
 50
90.0
 51
180.0
  0
ARC
  5
31E4
  8
截面层
 10
22.400034123333171
 20
1712.8781562786171
 30
0.0
 40
1.5
 50
0.0
 51
90.0
  0
ARC
  5
31E5
  8
截面层
 10
26.900034123333182
 20
1465.353011025421
 30
0.0
 40
1.5
 50
180.0
 51
269.03142660782891
  0
ARC
  5
31E6
  8
截面层
 10
26.900034123333182
 20
1465.3281174022561
 30
0.0
 40
3.0
 50
180.0
 51
269.0363134224508
  0
LINE
  5
31E7
  8
截面层
 10
392.22539010780753
 20
1463.853225349623
 30
0.0
 11
269.40413608899689
 21
1459.8781562786751
 31
0.0
  0
LINE
  5
31E8
  8
截面层
 10
392.25049025559571
 20
1462.328541736046
 30
0.0
 11
269.40413608899689
 21
1458.3781562786751
 31
0.0
  0
ARC
  5
31E9
  8
截面层
 10
392.2000341234089
 20
1465.353011025654
 30
0.0
 40
1.5
 50
270.96857339217098
 51
0.0
  0
ARC
  5
31EA
  8
截面层
 10
392.2000341234089
 20
1465.3281174024889
 30
0.0
 40
3.0
 50
270.96368657754931
 51
0.0
  0
DIMENSION
  5
31EB
  8
标注线
  2
*D100
 10
680.90658184950007
 20
1461.865690814011
 30
0.0
 11
680.90658184950007
 21
1563.4719235463999
 31
0.0
 12
-140117.2113033394
 22
71388.181238683042
 32
0.0
 70
   128
  3
副本STANDARD
 13
812.80003412335645
 23
1715.878156278646
 33
0.0
 14
695.93976309834375
 24
1461.865690814011
 34
0.0
 50
90.0
  0
LINE
  5
31EC
  8
截面层
 10
419.10003412328638
 20
1712.8781562785589
 30
0.0
 11
419.10003412328638
 21
1465.353011025654
 31
0.0
  0
LINE
  5
31ED
  8
截面层
 10
417.6000341232866
 20
1712.8781562785589
 30
0.0
 11
417.60003412325727
 21
1465.3281174024889
 31
0.0
  0
ARC
  5
31EE
  8
截面层
 10
416.1000341232866
 20
1712.8781562785589
 30
0.0
 40
3.0
 50
0.0
 51
90.0
  0
ARC
  5
31EF
  8
截面层
 10
416.1000341232866
 20
1712.8781562785589
 30
0.0
 40
1.5
 50
0.0
 51
90.0
  0
LINE
  5
31F0
  8
0
 10
416.1000341232866
 20
1715.8781562786171
 30
0.0
 11
790.40003412333317
 21
1715.878156278646
 31
0.0
  0
LINE
  5
31F1
  8
截面层
 10
812.80003412335645
 20
1715.878156278646
 30
0.0
 11
790.40003412333317
 21
1715.8781562786171
 31
0.0
  0
LINE
  5
31F2
  8
截面层
 10
787.40003412333294
 20
1712.8781562786171
 30
0.0
 11
787.40003412336227
 21
1465.353011025421
 31
0.0
  0
LINE
  5
31F3
  8
截面层
 10
785.92539010776068
 20
1463.85322534939
 30
0.0
 11
663.10413608895033
 21
1459.878156278646
 31
0.0
  0
LINE
  5
31F4
  8
0
 10
661.2500341233681
 20
1459.878156278646
 30
0.0
 11
545.25003412336798
 21
1459.878156278646
 31
0.0
  0
LINE
  5
31F5
  8
细实线
 10
543.39594541434781
 20
1459.8781562786171
 30
0.0
 11
663.10413608895033
 21
1459.878156278646
 31
0.0
  0
LINE
  5
31F6
  8
中心线
 10
603.2500341233681
 20
1437.476940882407
 30
0.0
 11
603.25003412333876
 21
1522.393033213142
 31
0.0
  0
ARC
  5
31F7
  8
截面层
 10
663.10413608935755
 20
1456.878156278646
 30
0.0
 40
3.0
 50
90.000000008337636
 51
153.43494893478311
  0
ARC
  5
31F8
  8
截面层
 10
543.39593215734919
 20
1456.878156278646
 30
0.0
 40
3.0
 50
26.565051324734611
 51
89.999999994997424
  0
ARC
  5
31F9
  8
截面层
 10
657.3229831403587
 20
1455.378156278646
 30
0.0
 40
1.5
 50
270.00000005002568
 51
333.43494835310543
  0
ARC
  5
31FA
  8
截面层
 10
549.17708510634839
 20
1455.378156278646
 30
0.0
 40
1.5
 50
206.56505222708071
 51
269.99999994830671
  0
LINE
  5
31FB
  8
截面层
 10
547.83544432013866
 20
1454.70733588592
 30
0.0
 11
546.07921373035049
 21
1458.2197970654961
 31
0.0
  0
LINE
  5
31FC
  8
截面层
 10
657.3229831403587
 20
1453.878156278646
 30
0.0
 11
648.25003412333888
 21
1453.878156278646
 31
0.0
  0
LINE
  5
31FD
  8
截面层
 10
558.25003412333876
 20
1452.378156278646
 30
0.0
 11
558.25003412336787
 21
1453.878156278646
 31
0.0
  0
LINE
  5
31FE
  8
截面层
 10
658.66462392653921
 20
1454.70733588592
 30
0.0
 11
660.42085451635626
 21
1458.2197970654961
 31
0.0
  0
LINE
  5
31FF
  8
截面层
 10
648.2500341233681
 20
1452.378156278646
 30
0.0
 11
648.2500341233681
 21
1453.878156278646
 31
0.0
  0
LINE
  5
3200
  8
截面层
 10
558.25003412336787
 20
1453.878156278646
 30
0.0
 11
549.17708510634839
 21
1453.878156278646
 31
0.0
  0
LINE
  5
3201
  8
0
  6
CONTINUOUS
 10
648.2500341233681
 20
1453.878156278646
 30
0.0
 11
558.25003412336787
 21
1453.878156278646
 31
0.0
  0
LINE
  5
3202
  8
截面层
 10
660.00626471303985
 20
1454.036515492669
 30
0.0
 11
661.76249530285713
 21
1457.548976672246
 31
0.0
  0
ARC
  5
3203
  8
截面层
 10
663.10413608935755
 20
1456.878156278646
 30
0.0
 40
1.5
 50
90.000000008337636
 51
153.43494893478311
  0
LINE
  5
3204
  8
截面层
 10
785.9504902555783
 20
1462.3285417358129
 30
0.0
 11
663.10413608895033
 21
1458.378156278646
 31
0.0
  0
ARC
  5
3205
  8
截面层
 10
657.3229831403587
 20
1455.378156278646
 30
0.0
 40
3.0
 50
270.00000005002568
 51
333.43494835310543
  0
LINE
  5
3206
  8
截面层
 10
657.3229831403587
 20
1452.378156278646
 30
0.0
 11
648.25003412333888
 21
1452.378156278646
 31
0.0
  0
LINE
  5
3207
  8
0
  6
CONTINUOUS
 10
648.2500341233681
 20
1452.378156278646
 30
0.0
 11
558.25003412336787
 21
1452.378156278646
 31
0.0
  0
LINE
  5
3208
  8
截面层
 10
558.25003412333876
 20
1452.378156278646
 30
0.0
 11
549.17708510634839
 21
1452.378156278646
 31
0.0
  0
ARC
  5
3209
  8
截面层
 10
549.17708510634839
 20
1455.378156278646
 30
0.0
 40
3.0
 50
206.56505222708071
 51
269.99999994830671
  0
LINE
  5
320A
  8
截面层
 10
546.49380353363813
 20
1454.036515492669
 30
0.0
 11
544.73757294384995
 21
1457.548976672246
 31
0.0
  0
ARC
  5
320B
  8
截面层
 10
543.39593215734919
 20
1456.878156278646
 30
0.0
 40
1.5
 50
26.565051324734611
 51
89.999999994997424
  0
LINE
  5
320C
  8
截面层
 10
812.80003412335645
 20
1714.378156278646
 30
0.0
 11
790.40003412333317
 21
1714.378156278588
 31
0.0
  0
LINE
  5
320D
  8
截面层
 10
788.90003412333294
 20
1712.8781562786171
 30
0.0
 11
788.90003412339138
 21
1465.3281174022561
 31
0.0
  0
LINE
  5
320E
  8
截面层
 10
812.80003412335645
 20
1715.878156278646
 30
0.0
 11
812.80003412335645
 21
1714.378156278646
 31
0.0
  0
ARC
  5
320F
  8
截面层
 10
790.40003412333317
 20
1712.8781562786171
 30
0.0
 40
3.0
 50
90.0
 51
180.0
  0
ARC
  5
3210
  8
截面层
 10
790.40003412333317
 20
1712.8781562786171
 30
0.0
 40
1.5
 50
90.0
 51
180.0
  0
ARC
  5
3211
  8
截面层
 10
785.90003412336205
 20
1465.353011025421
 30
0.0
 40
1.5
 50
270.96857339217098
 51
0.0
  0
ARC
  5
3212
  8
截面层
 10
785.90003412339126
 20
1465.3281174022561
 30
0.0
 40
3.0
 50
270.96368657754931
 51
0.0
  0
LINE
  5
3213
  8
截面层
 10
420.57467813888798
 20
1463.853225349623
 30
0.0
 11
543.39593215769855
 21
1459.8781562786751
 31
0.0
  0
LINE
  5
3214
  8
截面层
 10
420.54957799107052
 20
1462.328541736046
 30
0.0
 11
543.39593215769855
 21
1458.3781562786751
 31
0.0
  0
ARC
  5
3215
  8
截面层
 10
420.6000341232866
 20
1465.353011025654
 30
0.0
 40
1.5
 50
180.0
 51
269.03142660782891
  0
ARC
  5
3216
  8
截面层
 10
420.6000341232866
 20
1465.3281174024889
 30
0.0
 40
3.0
 50
180.0
 51
269.0363134224508
  0
LINE
  5
3217
  8
0
 10
787.40003412339115
 20
1272.78482483777
 30
0.0
 11
652.44518865999976
 21
1188.5067513743561
 31
0.0
  0
LINE
  5
3218
  8
0
 10
419.10003412334481
 20
866.38482483771793
 30
0.0
 11
572.26546424336254
 21
1108.7546664722031
 31
0.0
  0
LINE
  5
3219
  8
0
 10
554.0548795867652
 20
1188.5067513742979
 30
0.0
 11
419.10003412334481
 21
1272.784824837712
 31
0.0
  0
LINE
  5
321A
  8
0
 10
634.23460400337353
 20
1108.754666472159
 30
0.0
 11
787.40003412333294
 21
866.38482483771793
 31
0.0
  0
DIMENSION
  5
321B
  8
标注
  2
*D108
 10
332.42733455366999
 20
1157.7848248377411
 30
0.0
 11
332.42733455366988
 21
1118.7181581710761
 31
0.0
 12
-140117.2113033394
 22
71388.181238683042
 32
0.0
 70
   128
  3
副本STANDARD
 13
318.98901618891119
 23
1272.784824837727
 33
0.0
 14
311.11684337833719
 24
1157.7848248377411
 34
0.0
 50
90.0
1001
ACAD
1000
DSTYLE
1002
{
1070
    49
1040
2.0
1002
}
  0
LINE
  5
321E
  8
0
 10
789.48305186108337
 20
62.94141249358654
 30
0.0
 11
789.48305186108337
 21
473.34141249358078
 31
0.0
  0
LINE
  5
321F
  8
0
 10
23.483051861083371
 20
473.34141249358078
 30
0.0
 11
23.483051861083371
 21
62.94141249358654
 31
0.0
  0
LINE
  5
3220
  8
0
 10
23.483051861083371
 20
62.94141249358654
 30
0.0
 11
789.48305186108337
 21
62.94141249358654
 31
0.0
  0
LINE
  5
3221
  8
0
 10
789.48305186108337
 20
473.34141249358078
 30
0.0
 11
23.483051861083371
 21
473.34141249358078
 31
0.0
  0
DIMENSION
  5
3222
  8
标注
  2
*D110
 10
789.48305186108337
 20
11.65750052705698
 30
0.0
 11
396.87680303814699
 21
11.65750052705698
 31
0.0
 12
-140117.2113033394
 22
71388.181238683042
 32
0.0
 70
   128
  3
副本STANDARD
 13
23.483051861083371
 23
62.94141249358654
 33
0.0
 14
789.48305186108337
 24
62.94141249358654
 34
0.0
  0
DIMENSION
  5
3225
  8
标注
  2
*D112
 10
846.81953776851844
 20
62.941412493586533
 30
0.0
 11
846.81953776851844
 21
268.14141249358369
 31
0.0
 12
-140117.2113033394
 22
71388.181238683042
 32
0.0
  3
副本STANDARD
 13
789.48305186108337
 23
473.34141249358078
 33
0.0
 14
789.48305186108337
 24
62.94141249358654
 34
0.0
 50
90.0
  0
ENDBLK
  5
322B
  8
0
  0
BLOCK
  8
0
  2
*U115
 70
     1
 10
0.0
 20
0.0
 30
0.0
  3
*U115
  1

  0
CIRCLE
  5
423E
  8
0
 10
209.5500341232983
 20
1157.7848248377411
 30
0.0
 40
58.0
  0
ENDBLK
  5
4240
  8
0
  0
BLOCK
  8
0
  2
*U116
 70
     1
 10
0.0
 20
0.0
 30
0.0
  3
*U116
  1

  0
CIRCLE
  5
4242
  8
0
 10
603.2500341233972
 20
1157.7848248377411
 30
0.0
 40
58.0
  0
ENDBLK
  5
4244
  8
0
  0
BLOCK
  8
0
  2
*D117
 70
     1
 10
0.0
 20
0.0
 30
0.0
  3
*D117
  1

  0
LINE
  5
332F
  8
标注
  6
BYBLOCK
 10
606.77791060752384
 20
148.87479017438821
 30
0.0
 11
606.77791060752384
 21
145.95374526949189
 31
0.0
  0
LINE
  5
3330
  8
标注
  6
BYBLOCK
 10
634.77791060742175
 20
148.87479017438821
 30
0.0
 11
634.77791060742175
 21
145.95374526949189
 31
0.0
  0
LINE
  5
3331
  8
标注
  6
BYBLOCK
 10
607.42791060752393
 20
146.27374526949191
 30
0.0
 11
619.81957727413953
 21
146.27374526949191
 31
0.0
  0
LINE
  5
3332
  8
标注
  6
BYBLOCK
 10
634.12791060742177
 20
146.27374526949191
 30
0.0
 11
621.73624394080639
 21
146.27374526949191
 31
0.0
  0
SOLID
  5
3333
  8
标注
 10
607.42791060752393
 20
146.38207860282509
 30
0.0
 11
607.42791060752393
 21
146.16541193615851
 31
0.0
 12
606.77791060752384
 22
146.27374526949191
 32
0.0
 13
606.77791060752384
 23
146.27374526949191
 33
0.0
  0
SOLID
  5
3334
  8
标注
 10
634.12791060742177
 20
146.38207860282509
 30
0.0
 11
634.12791060742177
 21
146.16541193615851
 31
0.0
 12
634.77791060742175
 22
146.27374526949191
 32
0.0
 13
634.77791060742175
 23
146.27374526949191
 33
0.0
  0
INSERT
  5
3335
  8
标注
  2
*U118
 10
0.0
 20
0.0
 30
0.0
  0
POINT
  5
3336
  8
DEFPOINTS
 62
     0
 10
606.77791060752384
 20
149.75479017438821
 30
0.0
  0
POINT
  5
3337
  8
DEFPOINTS
 62
     0
 10
634.77791060742175
 20
149.75479017438821
 30
0.0
  0
POINT
  5
3338
  8
DEFPOINTS
 62
     0
 10
634.77791060742175
 20
146.27374526949191
 30
0.0
  0
ENDBLK
  5
32D6
  8
0
  0
BLOCK
  8
0
  2
*U118
 70
     1
 10
0.0
 20
0.0
 30
0.0
  3
*U118
  1

  0
TEXT
  5
424A
  8
标注
 10
620.01957727413958
 20
145.94874526949181
 30
0.0
 40
0.65
  1
28"
  0
ENDBLK
  5
424C
  8
0
  0
BLOCK
  8
0
  2
*D119
 70
     1
 10
0.0
 20
0.0
 30
0.0
  3
*D119
  1

  0
LINE
  5
3669
  8
标注
  6
BYBLOCK
 10
605.77791060753839
 20
148.58879986944851
 30
0.0
 11
605.77791060753839
 21
144.53958841153499
 31
0.0
  0
LINE
  5
366A
  8
标注
  6
BYBLOCK
 10
635.77791060740742
 20
148.58879986944851
 30
0.0
 11
635.77791060740742
 21
144.53958841153499
 31
0.0
  0
LINE
  5
366B
  8
标注
  6
BYBLOCK
 10
606.42791060753837
 20
144.85958841153499
 30
0.0
 11
619.87374394080632
 21
144.85958841153499
 31
0.0
  0
LINE
  5
366C
  8
标注
  6
BYBLOCK
 10
635.12791060740733
 20
144.85958841153499
 30
0.0
 11
621.6820772741396
 21
144.85958841153499
 31
0.0
  0
SOLID
  5
366D
  8
标注
 10
606.42791060753837
 20
144.96792174486831
 30
0.0
 11
606.42791060753837
 21
144.75125507820169
 31
0.0
 12
605.77791060753839
 22
144.85958841153499
 32
0.0
 13
605.77791060753839
 23
144.85958841153499
 33
0.0
  0
SOLID
  5
366E
  8
标注
 10
635.12791060740733
 20
144.96792174486831
 30
0.0
 11
635.12791060740733
 21
144.75125507820169
 31
0.0
 12
635.77791060740742
 22
144.85958841153499
 32
0.0
 13
635.77791060740742
 23
144.85958841153499
 33
0.0
  0
INSERT
  5
366F
  8
标注
  2
*U120
 10
0.0
 20
0.0
 30
0.0
  0
POINT
  5
3670
  8
DEFPOINTS
 62
     0
 10
605.77791060753839
 20
149.4687998694485
 30
0.0
  0
POINT
  5
3671
  8
DEFPOINTS
 62
     0
 10
635.77791060740742
 20
149.4687998694485
 30
0.0
  0
POINT
  5
3672
  8
DEFPOINTS
 62
     0
 10
635.77791060740742
 20
144.85958841153499
 30
0.0
  0
ENDBLK
  5
32F0
  8
0
  0
BLOCK
  8
0
  2
*U120
 70
     1
 10
0.0
 20
0.0
 30
0.0
  3
*U120
  1

  0
TEXT
  5
425E
  8
标注
 10
620.07374394080625
 20
144.534588411535
 30
0.0
 40
0.65
  1
30"
  0
ENDBLK
  5
4260
  8
0
  0
BLOCK
  8
0
  2
*D121
 70
     1
 10
0.0
 20
0.0
 30
0.0
  3
*D121
  1

  0
LINE
  5
3348
  8
标注
  6
BYBLOCK
 10
635.06735942632224
 20
149.16423899328819
 30
0.0
 11
637.67872230386649
 21
149.16423899328819
 31
0.0
  0
LINE
  5
3349
  8
标注
  6
BYBLOCK
 10
635.06735942632224
 20
165.16423899323061
 30
0.0
 11
637.67872230386649
 21
165.16423899323061
 31
0.0
  0
LINE
  5
334A
  8
标注
  6
BYBLOCK
 10
637.35872230386633
 20
149.8142389932882
 30
0.0
 11
637.35872230386633
 21
156.31423899325941
 31
0.0
  0
LINE
  5
334B
  8
标注
  6
BYBLOCK
 10
637.35872230386633
 20
164.51423899323061
 30
0.0
 11
637.35872230386633
 21
158.0142389932594
 31
0.0
  0
SOLID
  5
334C
  8
标注
 10
637.25038897053287
 20
149.8142389932882
 30
0.0
 11
637.46705563719979
 21
149.8142389932882
 31
0.0
 12
637.35872230386633
 22
149.16423899328819
 32
0.0
 13
637.35872230386633
 23
149.16423899328819
 33
0.0
  0
SOLID
  5
334D
  8
标注
 10
637.25038897053287
 20
164.51423899323061
 30
0.0
 11
637.46705563719979
 21
164.51423899323061
 31
0.0
 12
637.35872230386633
 22
165.16423899323061
 32
0.0
 13
637.35872230386633
 23
165.16423899323061
 33
0.0
  0
INSERT
  5
334E
  8
标注
  2
*U122
 10
0.0
 20
0.0
 30
0.0
  0
POINT
  5
334F
  8
DEFPOINTS
 62
     0
 10
634.18735942632236
 20
149.16423899328819
 30
0.0
  0
POINT
  5
3350
  8
DEFPOINTS
 62
     0
 10
634.18735942632236
 20
165.16423899323061
 30
0.0
  0
POINT
  5
3351
  8
DEFPOINTS
 62
     0
 10
637.35872230386633
 20
165.16423899323061
 30
0.0
  0
ENDBLK
  5
333C
  8
0
  0
BLOCK
  8
0
  2
*U122
 70
     1
 10
0.0
 20
0.0
 30
0.0
  3
*U122
  1

  0
TEXT
  5
424E
  8
标注
 10
637.68372230386638
 20
156.51423899325951
 30
0.0
 40
0.65
  1
16"
 50
90.0
  0
ENDBLK
  5
4250
  8
0
  0
BLOCK
  8
0
  2
*D123
 70
     1
 10
0.0
 20
0.0
 30
0.0
  3
*D123
  1

  0
LINE
  5
3362
  8
标注
  6
BYBLOCK
 10
635.48700478702256
 20
148.164238993303
 30
0.0
 11
639.05933141471269
 21
148.164238993303
 31
0.0
  0
LINE
  5
3363
  8
标注
  6
BYBLOCK
 10
635.48700478702256
 20
166.16423899324479
 30
0.0
 11
639.05933141471269
 21
166.16423899324479
 31
0.0
  0
LINE
  5
3364
  8
标注
  6
BYBLOCK
 10
638.73933141471275
 20
148.81423899330301
 30
0.0
 11
638.73933141471275
 21
156.3142389932739
 31
0.0
  0
LINE
  5
3365
  8
标注
  6
BYBLOCK
 10
638.73933141471275
 20
165.51423899324479
 30
0.0
 11
638.73933141471275
 21
158.01423899327381
 31
0.0
  0
SOLID
  5
3366
  8
标注
 10
638.6309980813794
 20
148.81423899330301
 30
0.0
 11
638.8476647480461
 21
148.81423899330301
 31
0.0
 12
638.73933141471275
 22
148.164238993303
 32
0.0
 13
638.73933141471275
 23
148.164238993303
 33
0.0
  0
SOLID
  5
3367
  8
标注
 10
638.6309980813794
 20
165.51423899324479
 30
0.0
 11
638.8476647480461
 21
165.51423899324479
 31
0.0
 12
638.73933141471275
 22
166.16423899324479
 32
0.0
 13
638.73933141471275
 23
166.16423899324479
 33
0.0
  0
INSERT
  5
3368
  8
标注
  2
*U124
 10
0.0
 20
0.0
 30
0.0
  0
POINT
  5
3369
  8
DEFPOINTS
 62
     0
 10
634.60700478702256
 20
148.164238993303
 30
0.0
  0
POINT
  5
336A
  8
DEFPOINTS
 62
     0
 10
634.60700478702256
 20
166.16423899324479
 30
0.0
  0
POINT
  5
336B
  8
DEFPOINTS
 62
     0
 10
638.73933141471275
 20
166.16423899324479
 30
0.0
  0
ENDBLK
  5
3356
  8
0
  0
BLOCK
  8
0
  2
*U124
 70
     1
 10
0.0
 20
0.0
 30
0.0
  3
*U124
  1

  0
TEXT
  5
4252
  8
标注
 10
639.06433141471246
 20
156.51423899327401
 30
0.0
 40
0.65
  1
18"
 50
90.0
  0
ENDBLK
  5
4254
  8
0
  0
BLOCK
  8
0
  2
*D125
 70
     1
 10
0.0
 20
0.0
 30
0.0
  3
*D125
  1

  0
LINE
  5
364F
  8
标注
  6
BYBLOCK
 10
636.65791060740742
 20
185.4578485578015
 30
0.0
 11
637.85098196629303
 21
185.4578485578015
 31
0.0
  0
LINE
  5
3650
  8
标注
  6
BYBLOCK
 10
636.52018292879961
 20
176.3990808413138
 30
0.0
 11
637.85098196629303
 21
176.3990808413138
 31
0.0
  0
LINE
  5
3651
  8
标注
  6
BYBLOCK
 10
637.53098196629298
 20
184.80784855780141
 30
0.0
 11
637.53098196629298
 21
181.56179803289101
 31
0.0
  0
LINE
  5
3652
  8
标注
  6
BYBLOCK
 10
637.53098196629298
 20
177.04908084131381
 30
0.0
 11
637.53098196629298
 21
180.2951313662243
 31
0.0
  0
SOLID
  5
3653
  8
标注
 10
637.42264863295964
 20
184.80784855780141
 30
0.0
 11
637.63931529962633
 21
184.80784855780141
 31
0.0
 12
637.53098196629298
 22
185.4578485578015
 32
0.0
 13
637.53098196629298
 23
185.4578485578015
 33
0.0
  0
SOLID
  5
3654
  8
标注
 10
637.42264863295964
 20
177.04908084131381
 30
0.0
 11
637.63931529962633
 21
177.04908084131381
 31
0.0
 12
637.53098196629298
 22
176.3990808413138
 32
0.0
 13
637.53098196629298
 23
176.3990808413138
 33
0.0
  0
INSERT
  5
3655
  8
标注
  2
*U126
 10
0.0
 20
0.0
 30
0.0
  0
POINT
  5
3656
  8
DEFPOINTS
 62
     0
 10
635.77791060740742
 20
185.4578485578015
 30
0.0
  0
POINT
  5
3657
  8
DEFPOINTS
 62
     0
 10
635.64018292879962
 20
176.3990808413138
 30
0.0
  0
POINT
  5
3658
  8
DEFPOINTS
 62
     0
 10
637.53098196629298
 20
176.3990808413138
 30
0.0
  0
ENDBLK
  5
362E
  8
0
  0
BLOCK
  8
0
  2
*U126
 70
     1
 10
0.0
 20
0.0
 30
0.0
  3
*U126
  1

  0
TEXT
  5
4256
  8
标注
 10
637.85598196629292
 20
180.4951313662244
 30
0.0
 40
0.65
  1
9"
 50
90.0
  0
ENDBLK
  5
4258
  8
0
  0
BLOCK
  8
0
  2
*D127
 70
     1
 10
0.0
 20
0.0
 30
0.0
  3
*D127
  1

  0
LINE
  5
3663
  8
标注
  6
BYBLOCK
 10
607.8055813208282
 20
150.31357827484879
 30
0.0
 11
607.40509056186966
 21
149.80161426049941
 31
0.0
  0
INSERT
  5
3664
  8
标注
  2
*U128
 10
0.0
 20
0.0
 30
0.0
  0
SOLID
  5
3665
  8
标注
 10
607.31976322614469
 20
149.86836272032591
 30
0.0
 11
607.4904178975944
 21
149.73486580067291
 31
0.0
 12
607.00459980291066
 22
149.2896502461501
 32
0.0
 13
607.00459980291066
 23
149.2896502461501
 33
0.0
  0
POINT
  5
3666
  8
DEFPOINTS
 62
     0
 10
607.00459980291066
 20
149.2896502461501
 30
0.0
  0
POINT
  5
3667
  8
DEFPOINTS
 62
     0
 10
607.36846178863834
 20
149.7547901743884
 30
0.0
  0
ENDBLK
  5
365C
  8
0
  0
BLOCK
  8
0
  2
*U128
 70
     1
 10
0.0
 20
0.0
 30
0.0
  3
*U128
  1

  0
TEXT
  5
425A
  8
标注
 10
608.18479125383635
 20
150.27086028439999
 30
0.0
 40
0.65
  1
R5/8"
 50
51.96522547995805
  0
ENDBLK
  5
425C
  8
0
  0
BLOCK
  8
0
  2
*D129
 70
     1
 10
0.0
 20
0.0
 30
0.0
  3
*D129
  1

  0
LINE
  5
3682
  8
标注
  6
BYBLOCK
 10
605.92378348269654
 20
116.8362806942184
 30
0.0
 11
605.92378348269654
 21
114.6448949789023
 31
0.0
  0
LINE
  5
3683
  8
标注
  6
BYBLOCK
 10
634.08126379755515
 20
116.8362806942184
 30
0.0
 11
634.08126379755515
 21
114.6448949789023
 31
0.0
  0
LINE
  5
3684
  8
标注
  6
BYBLOCK
 10
606.57378348269651
 20
114.96489497890219
 30
0.0
 11
617.85252364012592
 21
114.96489497890219
 31
0.0
  0
LINE
  5
3685
  8
标注
  6
BYBLOCK
 10
633.43126379755518
 20
114.96489497890219
 30
0.0
 11
622.15252364012588
 21
114.96489497890219
 31
0.0
  0
SOLID
  5
3686
  8
标注
 10
606.57378348269651
 20
115.0732283122356
 30
0.0
 11
606.57378348269651
 21
114.8565616455689
 31
0.0
 12
605.92378348269654
 22
114.96489497890219
 32
0.0
 13
605.92378348269654
 23
114.96489497890219
 33
0.0
  0
SOLID
  5
3687
  8
标注
 10
633.43126379755518
 20
115.0732283122356
 30
0.0
 11
633.43126379755518
 21
114.8565616455689
 31
0.0
 12
634.08126379755515
 22
114.96489497890219
 32
0.0
 13
634.08126379755515
 23
114.96489497890219
 33
0.0
  0
INSERT
  5
3688
  8
标注
  2
*U130
 10
0.0
 20
0.0
 30
0.0
  0
POINT
  5
3689
  8
DEFPOINTS
 62
     0
 10
605.92378348269654
 20
117.7162806942184
 30
0.0
  0
POINT
  5
368A
  8
DEFPOINTS
 62
     0
 10
634.08126379755515
 20
117.7162806942184
 30
0.0
  0
POINT
  5
368B
  8
DEFPOINTS
 62
     0
 10
634.08126379755515
 20
114.96489497890219
 30
0.0
  0
ENDBLK
  5
3676
  8
0
  0
BLOCK
  8
0
  2
*U130
 70
     1
 10
0.0
 20
0.0
 30
0.0
  3
*U130
  1

  0
TEXT
  5
4262
  8
标注
 10
618.05252364012586
 20
114.6398949789023
 30
0.0
 40
0.65
  1
28 1/8"
  0
ENDBLK
  5
4264
  8
0
  0
BLOCK
  8
0
  2
*D131
 70
     1
 10
0.0
 20
0.0
 30
0.0
  3
*D131
  1

  0
LINE
  5
369C
  8
标注
  6
BYBLOCK
 10
634.29197245897524
 20
117.0469893556384
 30
0.0
 11
636.52449292018775
 21
117.0469893556384
 31
0.0
  0
LINE
  5
369D
  8
标注
  6
BYBLOCK
 10
634.29197245897524
 20
133.2044696705407
 30
0.0
 11
636.52449292018775
 21
133.2044696705407
 31
0.0
  0
LINE
  5
369E
  8
标注
  6
BYBLOCK
 10
636.2044929201877
 20
117.69698935563839
 30
0.0
 11
636.2044929201877
 21
123.0840628464229
 31
0.0
  0
LINE
  5
369F
  8
标注
  6
BYBLOCK
 10
636.2044929201877
 20
132.5544696705407
 30
0.0
 11
636.2044929201877
 21
127.1673961797562
 31
0.0
  0
SOLID
  5
36A0
  8
标注
 10
636.09615958685436
 20
117.69698935563839
 30
0.0
 11
636.31282625352094
 21
117.69698935563839
 31
0.0
 12
636.2044929201877
 22
117.0469893556384
 32
0.0
 13
636.2044929201877
 23
117.0469893556384
 33
0.0
  0
SOLID
  5
36A1
  8
标注
 10
636.09615958685436
 20
132.5544696705407
 30
0.0
 11
636.31282625352094
 21
132.5544696705407
 31
0.0
 12
636.2044929201877
 22
133.2044696705407
 32
0.0
 13
636.2044929201877
 23
133.2044696705407
 33
0.0
  0
INSERT
  5
36A2
  8
标注
  2
*U132
 10
0.0
 20
0.0
 30
0.0
  0
POINT
  5
36A3
  8
DEFPOINTS
 62
     0
 10
633.41197245897524
 20
117.0469893556384
 30
0.0
  0
POINT
  5
36A4
  8
DEFPOINTS
 62
     0
 10
633.41197245897524
 20
133.2044696705407
 30
0.0
  0
POINT
  5
36A5
  8
DEFPOINTS
 62
     0
 10
636.2044929201877
 20
133.2044696705407
 30
0.0
  0
ENDBLK
  5
3690
  8
0
  0
BLOCK
  8
0
  2
*U132
 70
     1
 10
0.0
 20
0.0
 30
0.0
  3
*U132
  1

  0
TEXT
  5
4266
  8
标注
 10
636.52949292018764
 20
123.284062846423
 30
0.0
 40
0.65
  1
16 1/8"
 50
90.0
  0
ENDBLK
  5
4268
  8
0
  0
BLOCK
  8
0
  2
A$C0C604AA1
 70
     0
 10
0.0
 20
0.0
 30
0.0
  3
A$C0C604AA1
  1

  0
LINE
  5
36AB
  8
0
 10
29.066947054350749
 20
30.57795330189402
 30
0.0
 11
0.9330887867399724
 21
30.57795330189402
 31
0.0
  0
LINE
  5
36AC
  8
0
 10
0.9330887867399724
 20
48.577953301835812
 30
0.0
 11
29.066947054350749
 21
48.577953301835812
 31
0.0
  0
LINE
  5
36AD
  8
0
 10
0.0000179206108442
 20
47.644882435677573
 30
0.0
 11
0.9330887867399724
 21
48.577953301835812
 31
0.0
  0
LINE
  5
36AE
  8
0
 10
0.0000179206108442
 20
47.644882435677573
 30
0.0
 11
0.0000179206108442
 21
31.511024168023141
 31
0.0
  0
LINE
  5
36AF
  8
0
 10
0.9330887867399724
 20
30.57795330189402
 30
0.0
 11
0.0000179206108442
 21
31.511024168023141
 31
0.0
  0
LINE
  5
36B0
  8
0
 10
1.5905691017105701
 20
31.577953301894009
 30
0.0
 11
28.409466739394698
 21
31.577953301894009
 31
0.0
  0
LINE
  5
36B1
  8
0
 10
28.409466739394698
 20
47.577953301835777
 30
0.0
 11
1.5905691017105701
 21
47.577953301835777
 31
0.0
  0
ARC
  5
36B2
  8
0
 10
28.409466739394698
 20
46.987402120721512
 30
0.0
 40
0.5905511811000002
 50
0.0
 51
90.0
  0
ARC
  5
36B3
  8
0
 10
1.5905691017105701
 20
46.987402120721512
 30
0.0
 40
0.5905511811000002
 50
90.0
 51
180.0
  0
LINE
  5
36B4
  8
0
 10
29.000510046476851
 20
41.465985270537203
 30
0.0
 11
29.000510046476851
 21
41.465985270537203
 31
0.0
  0
INSERT
  5
36B5
  8
标注
  2
*U134
 10
0.0
 20
0.0
 30
0.0
  0
CIRCLE
  5
36B6
  8
细实线
 10
15.00001792055264
 20
43.050394246733049
 30
0.0
 40
2.1653543307000001
  0
CIRCLE
  5
36B7
  8
0
 10
15.00001792055264
 20
43.050394246733049
 30
0.0
 40
1.791338582669999
  0
LINE
  5
36B8
  8
0
 10
29.000017920494429
 20
46.987402120721512
 30
0.0
 11
29.000017920494429
 21
32.168504482979202
 31
0.0
  0
ARC
  5
36B9
  8
0
 10
28.409466739394698
 20
32.168504482979202
 30
0.0
 40
0.5905511811000002
 50
270.0
 51
0.0
  0
LINE
  5
36BA
  8
0
 10
1.000017920596292
 20
46.987402120721512
 30
0.0
 11
1.000017920596292
 21
32.168504482979202
 31
0.0
  0
ARC
  5
36BB
  8
0
 10
1.5905691017105701
 20
32.168504482979202
 30
0.0
 40
0.5905511811000002
 50
180.0
 51
270.0
  0
LINE
  5
36BC
  8
0
 10
30.00001792047988
 20
47.644882435677573
 30
0.0
 11
30.00001792047988
 21
31.511024168023141
 31
0.0
  0
LINE
  5
36BD
  8
0
 10
0.0000179206108442
 20
64.916370761347935
 30
0.0
 11
0.881907684379257
 21
64.916370761347935
 31
0.0
  0
LINE
  5
36BE
  8
0
 10
0.0000179206108442
 20
64.857315643253969
 30
0.0
 11
0.881907684379257
 21
64.857315643253969
 31
0.0
  0
LINE
  5
36BF
  8
虚线
 10
1.000017920596292
 20
64.798260525130885
 30
0.0
 11
1.000017920596292
 21
56.565416966797777
 31
0.0
  0
LINE
  5
36C0
  8
0
 10
0.9409628024877748
 20
64.798260525130885
 30
0.0
 11
0.9409628024877748
 21
56.564659510215279
 31
0.0
  0
ARC
  5
36C1
  8
虚线
 10
0.881907684379257
 20
64.798260525130885
 30
0.0
 40
0.11811023622
 50
0.0
 51
90.0
  0
ARC
  5
36C2
  8
0
 10
0.881907684379257
 20
64.798260525130885
 30
0.0
 40
0.05905511811
 50
0.0
 51
90.0
  0
LINE
  5
36C3
  8
0
 10
0.881907684379257
 20
64.916370761347935
 30
0.0
 11
29.11812815671146
 21
64.916370761347935
 31
0.0
  0
LINE
  5
36C4
  8
0
 10
30.00001792047988
 20
64.916370761347935
 30
0.0
 11
29.11812815671146
 21
64.916370761347935
 31
0.0
  0
LINE
  5
36C5
  8
虚线
 10
29.000017920494429
 20
64.798260525130885
 30
0.0
 11
29.000017920494429
 21
56.56541607988764
 31
0.0
  0
LINE
  5
36C6
  8
虚线
 10
17.28348248747352
 20
55.857603044860276
 30
0.0
 11
12.716553353631751
 21
55.857603044860276
 31
0.0
  0
LINE
  5
36C7
  8
虚线
 10
12.64355773516581
 20
55.857603044860276
 30
0.0
 11
17.356478627843899
 21
55.857603044860276
 31
0.0
  0
ARC
  5
36C8
  8
虚线
 10
17.356478627858451
 20
55.739492808643263
 30
0.0
 40
0.11811023622
 50
90.0
 51
153.43494895529091
  0
ARC
  5
36C9
  8
虚线
 10
12.64355721323227
 20
55.739492808643263
 30
0.0
 40
0.11811023622
 50
26.565051328090458
 51
90.0
  0
ARC
  5
36CA
  8
虚线
 10
17.128874181042189
 20
55.680437690520193
 30
0.0
 40
0.05905511811
 50
270.000000042522
 51
333.43494834005492
  0
ARC
  5
36CB
  8
虚线
 10
12.87116166003398
 20
55.680437690520193
 30
0.0
 40
0.05905511811
 50
206.5650522285722
 51
269.99999995747811
  0
LINE
  5
36CC
  8
虚线
 10
12.81834115664242
 20
55.654027438838973
 30
0.0
 11
12.749198220044491
 21
55.792313312063932
 31
0.0
  0
LINE
  5
36CD
  8
虚线
 10
17.128874181042189
 20
55.621382572426207
 30
0.0
 11
16.771671463851821
 21
55.621382572426207
 31
0.0
  0
LINE
  5
36CE
  8
虚线
 10
13.228364377238901
 20
55.562327454303158
 30
0.0
 11
13.228364377253451
 21
55.621382572426207
 31
0.0
  0
LINE
  5
36CF
  8
虚线
 10
17.181694684433751
 20
55.654027438838973
 30
0.0
 11
17.25083762104623
 21
55.792313312063932
 31
0.0
  0
LINE
  5
36D0
  8
虚线
 10
16.771671463851821
 20
55.562327454303158
 30
0.0
 11
16.771671463851821
 21
55.621382572426207
 31
0.0
  0
LINE
  5
36D1
  8
虚线
 10
13.228364377253451
 20
55.621382572426207
 30
0.0
 11
12.87116166003398
 21
55.621382572426207
 31
0.0
  0
LINE
  5
36D2
  8
虚线
 10
16.771671463851821
 20
55.621382572426207
 30
0.0
 11
13.228364377253451
 21
55.621382572426207
 31
0.0
  0
LINE
  5
36D3
  8
0
 10
17.234515187839861
 20
55.627617187128628
 30
0.0
 11
17.30365812445234
 21
55.765903060353601
 31
0.0
  0
ARC
  5
36D4
  8
0
 10
17.356478627858451
 20
55.739492808643263
 30
0.0
 40
0.05905511811
 50
90.0
 51
153.43494895529091
  0
ARC
  5
36D5
  8
0
 10
17.128874181042189
 20
55.680437690520193
 30
0.0
 40
0.11811023622
 50
270.000000042522
 51
333.43494834005492
  0
LINE
  5
36D6
  8
0
 10
17.128874181042189
 20
55.562327454303158
 30
0.0
 11
16.771671463851821
 21
55.562327454303158
 31
0.0
  0
LINE
  5
36D7
  8
0
 10
16.771671463851821
 20
55.562327454303158
 30
0.0
 11
13.228364377253451
 21
55.562327454303158
 31
0.0
  0
LINE
  5
36D8
  8
0
 10
13.228364377238901
 20
55.562327454303158
 30
0.0
 11
12.87116166003398
 21
55.562327454303158
 31
0.0
  0
ARC
  5
36D9
  8
0
 10
12.87116166003398
 20
55.680437690520193
 30
0.0
 40
0.11811023622
 50
206.5650522285722
 51
269.99999995747811
  0
LINE
  5
36DA
  8
0
 10
12.76552065323631
 20
55.627617187128628
 30
0.0
 11
12.696377716638381
 21
55.765903060353601
 31
0.0
  0
ARC
  5
36DB
  8
0
 10
12.64355721323227
 20
55.739492808643263
 30
0.0
 40
0.05905511811
 50
26.565051328090458
 51
90.0
  0
LINE
  5
36DC
  8
0
 10
30.00001792047988
 20
64.857315643253969
 30
0.0
 11
29.11812815671146
 21
64.857315643253969
 31
0.0
  0
LINE
  5
36DD
  8
0
 10
29.05907303860295
 20
64.798260525130885
 30
0.0
 11
29.05907303860295
 21
56.56465611205202
 31
0.0
  0
LINE
  5
36DE
  8
0
 10
30.00001792047988
 20
64.916370761347935
 30
0.0
 11
30.00001792047988
 21
64.857315643253969
 31
0.0
  0
ARC
  5
36DF
  8
虚线
 10
29.11812815671146
 20
64.798260525130885
 30
0.0
 40
0.11811023622
 50
90.0
 51
180.0
  0
ARC
  5
36E0
  8
0
 10
29.11812815671146
 20
64.798260525130885
 30
0.0
 40
0.05905511811
 50
90.0
 51
180.0
  0
LINE
  5
36E1
  8
0
 10
28.409466739394698
 20
46.987402120721512
 30
0.0
 11
17.147897579270641
 21
43.825522236176752
 31
0.0
  0
LINE
  5
36E2
  8
0
 10
1.5905691017105701
 20
32.168504482979202
 30
0.0
 11
13.383323914953509
 21
41.437784275069127
 31
0.0
  0
LINE
  5
36E3
  8
0
 10
12.85213826182007
 20
43.825522236147663
 30
0.0
 11
1.5905691017105701
 21
46.987402120721512
 31
0.0
  0
LINE
  5
36E4
  8
0
 10
16.61671192613721
 20
41.437784275069127
 30
0.0
 11
28.409466739394698
 21
32.168504482979202
 31
0.0
  0
ARC
  5
36E5
  8
虚线
 10
1.5905691016960191
 20
56.565419475082287
 30
0.0
 40
0.5905511811000002
 50
180.0
 51
268.26560346968211
  0
ARC
  5
36E6
  8
0
 10
1.5905691016960191
 20
56.564659510215279
 30
0.0
 40
0.6496062992100002
 50
180.0
 51
268.27666585467011
  0
LINE
  5
36E7
  8
虚线
 10
1.5726952982076901
 20
55.975138842972228
 30
0.0
 11
12.64355721323227
 21
55.857603044860276
 31
0.0
  0
LINE
  5
36E8
  8
0
 10
1.571033283675205
 20
55.91534703088108
 30
0.0
 11
12.64355721323227
 21
55.798547926737221
 31
0.0
  0
ARC
  5
36E9
  8
虚线
 10
28.409466739394698
 20
56.565419475082287
 30
0.0
 40
0.5905511811000002
 50
271.73439653031801
 51
0.0
  0
ARC
  5
36EA
  8
0
 10
28.409466739394698
 20
56.564659510215279
 30
0.0
 40
0.6496062992100002
 50
271.72333414532977
 51
0.0
  0
LINE
  5
36EB
  8
虚线
 10
28.42734054288303
 20
55.975138842972228
 30
0.0
 11
17.356478627843899
 21
55.857603044860276
 31
0.0
  0
LINE
  5
36EC
  8
0
 10
28.429002557415519
 20
55.915347030910212
 30
0.0
 11
17.356478627858451
 21
55.798547926737221
 31
0.0
  0
LINE
  5
36ED
  8
0
 10
30.00001792047988
 20
47.644882435677573
 30
0.0
 11
29.066947054350749
 21
48.577953301835812
 31
0.0
  0
LINE
  5
36EE
  8
0
 10
30.00001792047988
 20
31.511024168023141
 30
0.0
 11
29.066947054350749
 21
30.57795330189402
 31
0.0
  0
LINE
  5
36EF
  8
0
 10
0.0000179206108442
 20
64.916370761347935
 30
0.0
 11
0.0000179206108442
 21
64.857315643253969
 31
0.0
  0
LINE
  5
36F0
  8
0
 10
0.881907684379257
 20
64.857315643253969
 30
0.0
 11
29.11812815671146
 21
64.857315643253969
 31
0.0
  0
LINE
  5
36F1
  8
0
 10
12.64355721323227
 20
55.798547926737221
 30
0.0
 11
17.356478627843899
 21
55.798547926737221
 31
0.0
  0
LINE
  5
36F2
  8
0
 10
0.8151821343490155
 20
0.0000047324865591
 30
0.0
 11
27.634079772047691
 21
0.0000047324865591
 31
0.0
  0
ARC
  5
36F3
  8
0
 10
0.8151821343490155
 20
0.6692960710497573
 30
0.0
 40
0.66929133858
 50
180.0
 51
270.0
  0
LINE
  5
36F4
  8
0
 10
27.634079772047691
 20
16.157485047384402
 30
0.0
 11
0.8151821343490155
 21
16.157485047384402
 31
0.0
  0
ARC
  5
36F5
  8
0
 10
0.8151821343490155
 20
15.488193708792091
 30
0.0
 40
0.66929133858
 50
90.0
 51
180.0
  0
ARC
  5
36F6
  8
0
 10
27.634079772047691
 20
15.488193708792091
 30
0.0
 40
0.66929133858
 50
0.0
 51
90.0
  0
LINE
  5
36F7
  8
0
 10
28.303371110625449
 20
15.488193708792091
 30
0.0
 11
28.303371110625449
 21
0.6692960710497573
 31
0.0
  0
LINE
  5
36F8
  8
0
 10
0.1458907957712654
 20
15.488193708792091
 30
0.0
 11
0.1458907957712654
 21
0.6692960710497573
 31
0.0
  0
ARC
  5
36F9
  8
0
 10
27.634079772047691
 20
0.6692960710497573
 30
0.0
 40
0.66929133858
 50
270.0
 51
0.0
  0
ENDBLK
  5
36FD
  8
0
  0
BLOCK
  8
0
  2
*U134
 70
     1
 10
0.0
 20
0.0
 30
0.0
  3
*U134
  1

  0
CIRCLE
  5
426E
  8
0
 10
15.00001792055264
 20
43.050394246733049
 30
0.0
 40
2.2834645669200002
  0
ENDBLK
  5
4270
  8
0
  0
BLOCK
  8
0
  2
*D135
 70
     1
 10
0.0
 20
0.0
 30
0.0
  3
*D135
  1

  0
LINE
  5
3701
  8
标注线
 10
140950.04883746279
 20
-70089.996413845307
 30
0.0
 11
140995.11217056721
 21
-70089.996413845307
 31
0.0
  0
LINE
  5
3702
  8
标注线
 10
140924.61133746279
 20
-70115.396413845272
 30
0.0
 11
140995.11217056721
 21
-70115.396413845272
 31
0.0
  0
LINE
  5
3703
  8
标注线
 10
140987.11217056721
 20
-70131.396413845272
 30
0.0
 11
140987.11217056721
 21
-70147.396413845272
 31
0.0
  0
LINE
  5
3704
  8
标注线
 10
140987.11217056721
 20
-70073.996413845307
 30
0.0
 11
140987.11217056721
 21
-70044.551969400869
 31
0.0
  0
LINE
  5
3705
  8
标注线
 10
140987.11217056721
 20
-70115.396413845272
 30
0.0
 11
140987.11217056721
 21
-70089.996413845307
 31
0.0
  0
SOLID
  5
3706
  8
标注线
 10
140984.4455039005
 20
-70131.396413845272
 30
0.0
 11
140989.77883723381
 21
-70131.396413845272
 31
0.0
 12
140987.11217056721
 22
-70115.396413845272
 32
0.0
 13
140987.11217056721
 23
-70115.396413845272
 33
0.0
  0
SOLID
  5
3707
  8
标注线
 10
140984.4455039005
 20
-70073.996413845307
 30
0.0
 11
140989.77883723381
 21
-70073.996413845307
 31
0.0
 12
140987.11217056721
 22
-70089.996413845307
 32
0.0
 13
140987.11217056721
 23
-70089.996413845307
 33
0.0
  0
INSERT
  5
3708
  8
标注
  2
*U136
 10
0.0
 20
0.0
 30
0.0
  0
POINT
  5
3709
  8
DEFPOINTS
 62
     0
 10
140930.04883746279
 20
-70089.996413845307
 30
0.0
  0
POINT
  5
370A
  8
DEFPOINTS
 62
     0
 10
140904.61133746279
 20
-70115.396413845272
 30
0.0
  0
POINT
  5
370B
  8
DEFPOINTS
 62
     0
 10
140987.11217056721
 20
-70115.396413845272
 30
0.0
  0
ENDBLK
  5
370C
  8
0
  0
BLOCK
  8
0
  2
*U136
 70
     1
 10
0.0
 20
0.0
 30
0.0
  3
*U136
  1

  0
TEXT
  5
4272
  8
标注线
 10
140993.7788372339
 20
-70040.107524956402
 30
0.0
 40
16.0
  1
25,4
 50
90.0
  0
ENDBLK
  5
4274
  8
0
  0
BLOCK
  8
0
  2
*D137
 70
     1
 10
0.0
 20
0.0
 30
0.0
  3
*D137
  1

  0
LINE
  5
370F
  8
标注线
 10
140510.91133746281
 20
-70541.796413845339
 30
0.0
 11
140510.91133746281
 21
-70609.630469743832
 31
0.0
  0
LINE
  5
3710
  8
标注线
 10
140142.61133746279
 20
-70541.796413845339
 30
0.0
 11
140142.61133746279
 21
-70609.630469743832
 31
0.0
  0
LINE
  5
3711
  8
标注线
 10
140494.91133746281
 20
-70601.630469743832
 30
0.0
 11
140361.82800412949
 21
-70601.630469743832
 31
0.0
  0
LINE
  5
3712
  8
标注线
 10
140158.61133746279
 20
-70601.630469743832
 30
0.0
 11
140291.6946707961
 21
-70601.630469743832
 31
0.0
  0
SOLID
  5
3713
  8
标注线
 10
140494.91133746281
 20
-70598.96380307716
 30
0.0
 11
140494.91133746281
 21
-70604.297136410503
 31
0.0
 12
140510.91133746281
 22
-70601.630469743832
 32
0.0
 13
140510.91133746281
 23
-70601.630469743832
 33
0.0
  0
SOLID
  5
3714
  8
标注线
 10
140158.61133746279
 20
-70598.96380307716
 30
0.0
 11
140158.61133746279
 21
-70604.297136410503
 31
0.0
 12
140142.61133746279
 22
-70601.630469743832
 32
0.0
 13
140142.61133746279
 23
-70601.630469743832
 33
0.0
  0
INSERT
  5
3715
  8
标注
  2
*U138
 10
0.0
 20
0.0
 30
0.0
  0
POINT
  5
3716
  8
DEFPOINTS
 62
     0
 10
140510.91133746281
 20
-70521.796413845339
 30
0.0
  0
POINT
  5
3717
  8
DEFPOINTS
 62
     0
 10
140142.61133746279
 20
-70521.796413845339
 30
0.0
  0
POINT
  5
3718
  8
DEFPOINTS
 62
     0
 10
140142.61133746279
 20
-70601.630469743832
 30
0.0
  0
ENDBLK
  5
3719
  8
0
  0
BLOCK
  8
0
  2
*U138
 70
     1
 10
0.0
 20
0.0
 30
0.0
  3
*U138
  1

  0
TEXT
  5
4276
  8
标注线
 10
140293.42800412941
 20
-70608.297136410503
 30
0.0
 40
16.0
  1
368,3
  0
ENDBLK
  5
4278
  8
0
  0
BLOCK
  8
0
  2
*D139
 70
     1
 10
0.0
 20
0.0
 30
0.0
  3
*D139
  1

  0
LINE
  5
371C
  8
标注线
 10
140117.2113374628
 20
-70567.196413845377
 30
0.0
 11
140117.2113374628
 21
-70666.813595484695
 31
0.0
  0
LINE
  5
371D
  8
标注线
 10
140930.01133746281
 20
-70567.196413845348
 30
0.0
 11
140930.01133746281
 21
-70666.813595484695
 31
0.0
  0
LINE
  5
371E
  8
标注线
 10
140133.2113374628
 20
-70658.813595484724
 30
0.0
 11
140488.32244857389
 21
-70658.813595484724
 31
0.0
  0
LINE
  5
371F
  8
标注线
 10
140914.01133746281
 20
-70658.813595484724
 30
0.0
 11
140558.90022635169
 21
-70658.813595484724
 31
0.0
  0
SOLID
  5
3720
  8
标注线
 10
140133.2113374628
 20
-70656.146928818038
 30
0.0
 11
140133.2113374628
 21
-70661.480262151381
 31
0.0
 12
140117.2113374628
 22
-70658.813595484724
 32
0.0
 13
140117.2113374628
 23
-70658.813595484724
 33
0.0
  0
SOLID
  5
3721
  8
标注线
 10
140914.01133746281
 20
-70656.146928818038
 30
0.0
 11
140914.01133746281
 21
-70661.480262151381
 31
0.0
 12
140930.01133746281
 22
-70658.813595484724
 32
0.0
 13
140930.01133746281
 23
-70658.813595484724
 33
0.0
  0
INSERT
  5
3722
  8
标注
  2
*U140
 10
0.0
 20
0.0
 30
0.0
  0
POINT
  5
3723
  8
DEFPOINTS
 62
     0
 10
140117.2113374628
 20
-70547.196413845377
 30
0.0
  0
POINT
  5
3724
  8
DEFPOINTS
 62
     0
 10
140930.01133746281
 20
-70547.196413845348
 30
0.0
  0
POINT
  5
3725
  8
DEFPOINTS
 62
     0
 10
140930.01133746281
 20
-70658.813595484724
 30
0.0
  0
ENDBLK
  5
3726
  8
0
  0
BLOCK
  8
0
  2
*U140
 70
     1
 10
0.0
 20
0.0
 30
0.0
  3
*U140
  1

  0
TEXT
  5
427A
  8
标注线
 10
140492.94467079619
 20
-70665.480262151381
 30
0.0
 40
16.0
  1
812,8
  0
ENDBLK
  5
427C
  8
0
  0
BLOCK
  8
0
  2
*D141
 70
     1
 10
0.0
 20
0.0
 30
0.0
  3
*D141
  1

  0
LINE
  5
3729
  8
标注线
 10
140536.3113374628
 20
-70541.796413845339
 30
0.0
 11
140536.3113374628
 21
-70609.630469743832
 31
0.0
  0
LINE
  5
372A
  8
标注线
 10
140904.61133746279
 20
-70541.796413845368
 30
0.0
 11
140904.61133746279
 21
-70609.630469743832
 31
0.0
  0
LINE
  5
372B
  8
标注线
 10
140552.3113374628
 20
-70601.630469743832
 30
0.0
 11
140685.39467079609
 21
-70601.630469743832
 31
0.0
  0
LINE
  5
372C
  8
标注线
 10
140888.61133746279
 20
-70601.630469743832
 30
0.0
 11
140755.5280041295
 21
-70601.630469743832
 31
0.0
  0
SOLID
  5
372D
  8
标注线
 10
140552.3113374628
 20
-70598.96380307716
 30
0.0
 11
140552.3113374628
 21
-70604.297136410503
 31
0.0
 12
140536.3113374628
 22
-70601.630469743832
 32
0.0
 13
140536.3113374628
 23
-70601.630469743832
 33
0.0
  0
SOLID
  5
372E
  8
标注线
 10
140888.61133746279
 20
-70598.96380307716
 30
0.0
 11
140888.61133746279
 21
-70604.297136410503
 31
0.0
 12
140904.61133746279
 22
-70601.630469743832
 32
0.0
 13
140904.61133746279
 23
-70601.630469743832
 33
0.0
  0
INSERT
  5
372F
  8
标注
  2
*U142
 10
0.0
 20
0.0
 30
0.0
  0
POINT
  5
3730
  8
DEFPOINTS
 62
     0
 10
140536.3113374628
 20
-70521.796413845339
 30
0.0
  0
POINT
  5
3731
  8
DEFPOINTS
 62
     0
 10
140904.61133746279
 20
-70521.796413845368
 30
0.0
  0
POINT
  5
3732
  8
DEFPOINTS
 62
     0
 10
140904.61133746279
 20
-70601.630469743832
 30
0.0
  0
ENDBLK
  5
3733
  8
0
  0
BLOCK
  8
0
  2
*U142
 70
     1
 10
0.0
 20
0.0
 30
0.0
  3
*U142
  1

  0
TEXT
  5
427E
  8
标注线
 10
140687.12800412939
 20
-70608.297136410503
 30
0.0
 40
16.0
  1
368,3
  0
ENDBLK
  5
4280
  8
0
  0
BLOCK
  8
0
  2
*D143
 70
     1
 10
0.0
 20
0.0
 30
0.0
  3
*D143
  1

  0
LINE
  5
3736
  8
标注线
 10
140910.01133746281
 20
-69672.303082404396
 30
0.0
 11
140790.1178851889
 21
-69672.303082404396
 31
0.0
  0
LINE
  5
3737
  8
标注线
 10
140793.1510664378
 20
-69926.315547869031
 30
0.0
 11
140790.1178851889
 21
-69926.315547869031
 31
0.0
  0
LINE
  5
3738
  8
标注线
 10
140798.1178851889
 20
-69688.303082404411
 30
0.0
 11
140798.1178851889
 21
-69800.62042624777
 31
0.0
  0
LINE
  5
3739
  8
标注线
 10
140798.1178851889
 20
-69910.315547869031
 30
0.0
 11
140798.1178851889
 21
-69848.798204025545
 31
0.0
  0
SOLID
  5
373A
  8
标注线
 10
140795.4512185223
 20
-69688.303082404411
 30
0.0
 11
140800.78455185561
 21
-69688.303082404411
 31
0.0
 12
140798.1178851889
 22
-69672.303082404396
 32
0.0
 13
140798.1178851889
 23
-69672.303082404396
 33
0.0
  0
SOLID
  5
373B
  8
标注线
 10
140795.4512185223
 20
-69910.315547869031
 30
0.0
 11
140800.78455185561
 21
-69910.315547869031
 31
0.0
 12
140798.1178851889
 22
-69926.315547869031
 32
0.0
 13
140798.1178851889
 23
-69926.315547869031
 33
0.0
  0
INSERT
  5
373C
  8
标注
  2
*U144
 10
0.0
 20
0.0
 30
0.0
  0
POINT
  5
373D
  8
DEFPOINTS
 62
     0
 10
140930.01133746281
 20
-69672.303082404396
 30
0.0
  0
POINT
  5
373E
  8
DEFPOINTS
 62
     0
 10
140813.1510664378
 20
-69926.315547869031
 30
0.0
  0
POINT
  5
373F
  8
DEFPOINTS
 62
     0
 10
140798.1178851889
 20
-69926.315547869031
 30
0.0
  0
ENDBLK
  5
3740
  8
0
  0
BLOCK
  8
0
  2
*U144
 70
     1
 10
0.0
 20
0.0
 30
0.0
  3
*U144
  1

  0
TEXT
  5
4282
  8
标注线
 10
140806.1178851889
 20
-69846.042648469971
 30
0.0
 40
16.0
  1
254
 50
90.0
  0
ENDBLK
  5
4284
  8
0
  0
BLOCK
  8
0
  2
*D145
 70
     1
 10
0.0
 20
0.0
 30
0.0
  3
*D145
  1

  0
LINE
  5
3743
  8
标注线
 10
140253.78915884669
 20
-70256.498351474889
 30
0.0
 11
140268.854382819
 21
-70251.109564351354
 31
0.0
  0
LINE
  5
3744
  8
标注线
 10
140384.66829210659
 20
-70209.683263339233
 30
0.0
 11
140399.733516079
 21
-70204.294476215699
 31
0.0
  0
INSERT
  5
3745
  8
标注
  2
*U146
 10
0.0
 20
0.0
 30
0.0
  0
LINE
  5
3746
  8
标注线
 10
140369.60306813431
 20
-70215.072050462753
 30
0.0
 11
140283.9196067914
 21
-70245.72077722782
 31
0.0
  0
SOLID
  5
3747
  8
标注线
 10
140383.7701609194
 20
-70207.172392677166
 30
0.0
 11
140385.5664232939
 21
-70212.1941340013
 31
0.0
 12
140369.60306813431
 22
-70215.072050462753
 32
0.0
 13
140369.60306813431
 23
-70215.072050462753
 33
0.0
  0
SOLID
  5
3748
  8
标注线
 10
140267.95625163181
 20
-70248.598693689273
 30
0.0
 11
140269.75251400631
 21
-70253.620435013407
 31
0.0
 12
140283.9196067914
 22
-70245.72077722782
 32
0.0
 13
140283.9196067914
 23
-70245.72077722782
 33
0.0
  0
POINT
  5
3749
  8
DEFPOINTS
 62
     0
 10
140283.9196067914
 20
-70245.72077722782
 30
0.0
  0
POINT
  5
374A
  8
DEFPOINTS
 62
     0
 10
140369.60306813431
 20
-70215.072050462753
 30
0.0
  0
ENDBLK
  5
374B
  8
0
  0
BLOCK
  8
0
  2
*U146
 70
     1
 10
0.0
 20
0.0
 30
0.0
  3
*U146
  1

  0
TEXT
  5
4286
  8
标注线
 10
140216.4855729792
 20
-70278.338125233771
 30
0.0
 40
16.0
  1
\U+220591
 50
19.681983273420261
  0
ENDBLK
  5
4288
  8
0
  0
BLOCK
  8
0
  2
*D147
 70
     1
 10
0.0
 20
0.0
 30
0.0
  3
*D147
  1

  0
LINE
  5
374E
  8
标注线
 10
140261.58334542211
 20
-70292.459521675511
 30
0.0
 11
140273.17054400709
 21
-70281.426080283476
 31
0.0
  0
LINE
  5
374F
  8
标注线
 10
140380.3521309183
 20
-70179.366747407184
 30
0.0
 11
140391.9393295034
 21
-70168.333306015134
 31
0.0
  0
INSERT
  5
3750
  8
标注
  2
*U148
 10
0.0
 20
0.0
 30
0.0
  0
LINE
  5
3751
  8
标注线
 10
140368.76493233329
 20
-70190.400188799234
 30
0.0
 11
140284.7577425921
 21
-70270.392638891441
 31
0.0
  0
SOLID
  5
3752
  8
标注线
 10
140378.5132240197
 20
-70177.435547643021
 30
0.0
 11
140382.19103781701
 21
-70181.297947171333
 31
0.0
 12
140368.76493233329
 22
-70190.400188799234
 32
0.0
 13
140368.76493233329
 23
-70190.400188799234
 33
0.0
  0
SOLID
  5
3753
  8
标注线
 10
140271.33163710841
 20
-70279.494880519327
 30
0.0
 11
140275.00945090569
 21
-70283.35728004764
 31
0.0
 12
140284.7577425921
 22
-70270.392638891441
 32
0.0
 13
140284.7577425921
 23
-70270.392638891441
 33
0.0
  0
POINT
  5
3754
  8
DEFPOINTS
 62
     0
 10
140284.7577425921
 20
-70270.392638891441
 30
0.0
  0
POINT
  5
3755
  8
DEFPOINTS
 62
     0
 10
140368.76493233329
 20
-70190.400188799234
 30
0.0
  0
ENDBLK
  5
3756
  8
0
  0
BLOCK
  8
0
  2
*U148
 70
     1
 10
0.0
 20
0.0
 30
0.0
  3
*U148
  1

  0
TEXT
  5
428A
  8
标注线
 10
140227.93548120381
 20
-70335.546013561994
 30
0.0
 40
16.0
  1
\U+2205116
 50
43.597669456804951
  0
ENDBLK
  5
428C
  8
0
  0
BLOCK
  8
0
  2
*D149
 70
     1
 10
0.0
 20
0.0
 30
0.0
  3
*D149
  1

  0
LINE
  5
3759
  8
标注线
 10
140510.91133746281
 20
-70327.795635603194
 30
0.0
 11
140510.91133746281
 21
-70288.486507761962
 31
0.0
  0
LINE
  5
375A
  8
标注线
 10
140536.3113374628
 20
-70327.795635603194
 30
0.0
 11
140536.3113374628
 21
-70288.486507761962
 31
0.0
  0
LINE
  5
375B
  8
标注线
 10
140494.91133746281
 20
-70296.486507761962
 30
0.0
 11
140478.91133746281
 21
-70296.486507761962
 31
0.0
  0
LINE
  5
375C
  8
标注线
 10
140552.3113374628
 20
-70296.486507761962
 30
0.0
 11
140568.3113374628
 21
-70296.486507761962
 31
0.0
  0
LINE
  5
375D
  8
标注线
 10
140510.91133746281
 20
-70296.486507761962
 30
0.0
 11
140536.3113374628
 21
-70296.486507761962
 31
0.0
  0
SOLID
  5
375E
  8
标注线
 10
140494.91133746281
 20
-70293.81984109529
 30
0.0
 11
140494.91133746281
 21
-70299.153174428633
 31
0.0
 12
140510.91133746281
 22
-70296.486507761962
 32
0.0
 13
140510.91133746281
 23
-70296.486507761962
 33
0.0
  0
SOLID
  5
375F
  8
标注线
 10
140552.3113374628
 20
-70293.81984109529
 30
0.0
 11
140552.3113374628
 21
-70299.153174428633
 31
0.0
 12
140536.3113374628
 22
-70296.486507761962
 32
0.0
 13
140536.3113374628
 23
-70296.486507761962
 33
0.0
  0
INSERT
  5
3760
  8
标注
  2
*U150
 10
0.0
 20
0.0
 30
0.0
  0
POINT
  5
3761
  8
DEFPOINTS
 62
     0
 10
140510.91133746281
 20
-70347.795635603208
 30
0.0
  0
POINT
  5
3762
  8
DEFPOINTS
 62
     0
 10
140536.3113374628
 20
-70347.795635603208
 30
0.0
  0
POINT
  5
3763
  8
DEFPOINTS
 62
     0
 10
140536.3113374628
 20
-70296.486507761962
 30
0.0
  0
ENDBLK
  5
3764
  8
0
  0
BLOCK
  8
0
  2
*U150
 70
     1
 10
0.0
 20
0.0
 30
0.0
  3
*U150
  1

  0
TEXT
  5
428E
  8
标注线
 10
140572.7557819073
 20
-70303.153174428633
 30
0.0
 40
16.0
  1
25,4
  0
ENDBLK
  5
4290
  8
0
  0
BLOCK
  8
0
  2
*D151
 70
     1
 10
0.0
 20
0.0
 30
0.0
  3
*D151
  1

  0
LINE
  5
3767
  8
标注
 10
140456.20031952841
 20
-70115.396413845316
 30
0.0
 11
140457.63863789311
 21
-70115.396413845316
 31
0.0
  0
LINE
  5
3768
  8
标注
 10
140448.3281467178
 20
-70230.396413845287
 30
0.0
 11
140457.63863789311
 21
-70230.396413845287
 31
0.0
  0
LINE
  5
3769
  8
标注
 10
140449.63863789311
 20
-70131.396413845316
 30
0.0
 11
140449.63863789311
 21
-70214.396413845287
 31
0.0
  0
LINE
  5
376A
  8
标注
 10
140449.63863789311
 20
-70230.396413845287
 30
0.0
 11
140449.63863789311
 21
-70246.396413845316
 31
0.0
  0
SOLID
  5
376B
  8
标注
 10
140446.97197122639
 20
-70131.396413845316
 30
0.0
 11
140452.3053045597
 21
-70131.396413845316
 31
0.0
 12
140449.63863789311
 22
-70115.396413845316
 32
0.0
 13
140449.63863789311
 23
-70115.396413845316
 33
0.0
  0
SOLID
  5
376C
  8
标注
 10
140446.97197122639
 20
-70214.396413845287
 30
0.0
 11
140452.3053045597
 21
-70214.396413845287
 31
0.0
 12
140449.63863789311
 22
-70230.396413845287
 32
0.0
 13
140449.63863789311
 23
-70230.396413845287
 33
0.0
  0
INSERT
  5
376D
  8
标注
  2
*U152
 10
0.0
 20
0.0
 30
0.0
  0
POINT
  5
376E
  8
DEFPOINTS
 62
     0
 10
140436.20031952841
 20
-70115.396413845316
 30
0.0
  0
POINT
  5
376F
  8
DEFPOINTS
 62
     0
 10
140428.3281467178
 20
-70230.396413845287
 30
0.0
  0
POINT
  5
3770
  8
DEFPOINTS
 62
     0
 10
140449.63863789311
 20
-70230.396413845287
 30
0.0
  0
ENDBLK
  5
3771
  8
0
  0
BLOCK
  8
0
  2
*U152
 70
     1
 10
0.0
 20
0.0
 30
0.0
  3
*U152
  1

  0
TEXT
  5
4292
  8
标注
 10
140457.63863789311
 20
-70285.463080511967
 30
0.0
 40
16.0
  1
115
 50
90.0
  0
ENDBLK
  5
4294
  8
0
  0
BLOCK
  8
0
  2
*D153
 70
     1
 10
0.0
 20
0.0
 30
0.0
  3
*D153
  1

  0
LINE
  5
3774
  8
标注
 10
140140.69435520051
 20
-71345.239826189456
 30
0.0
 11
140140.69435520051
 21
-71384.523738156
 31
0.0
  0
LINE
  5
3775
  8
标注
 10
140906.69435520051
 20
-71345.239826189456
 30
0.0
 11
140906.69435520051
 21
-71384.523738156
 31
0.0
  0
LINE
  5
3776
  8
标注
 10
140156.69435520051
 20
-71376.523738155985
 30
0.0
 11
140490.31032859979
 21
-71376.523738155985
 31
0.0
  0
LINE
  5
3777
  8
标注
 10
140890.69435520051
 20
-71376.523738155985
 30
0.0
 11
140537.86588415541
 21
-71376.523738155985
 31
0.0
  0
SOLID
  5
3778
  8
标注
 10
140156.69435520051
 20
-71373.857071489314
 30
0.0
 11
140156.69435520051
 21
-71379.190404822657
 31
0.0
 12
140140.69435520051
 22
-71376.523738155985
 32
0.0
 13
140140.69435520051
 23
-71376.523738155985
 33
0.0
  0
SOLID
  5
3779
  8
标注
 10
140890.69435520051
 20
-71373.857071489314
 30
0.0
 11
140890.69435520051
 21
-71379.190404822657
 31
0.0
 12
140906.69435520051
 22
-71376.523738155985
 32
0.0
 13
140906.69435520051
 23
-71376.523738155985
 33
0.0
  0
INSERT
  5
377A
  8
标注
  2
*U154
 10
0.0
 20
0.0
 30
0.0
  0
POINT
  5
377B
  8
DEFPOINTS
 62
     0
 10
140140.69435520051
 20
-71325.239826189456
 30
0.0
  0
POINT
  5
377C
  8
DEFPOINTS
 62
     0
 10
140906.69435520051
 20
-71325.239826189456
 30
0.0
  0
POINT
  5
377D
  8
DEFPOINTS
 62
     0
 10
140906.69435520051
 20
-71376.523738155985
 30
0.0
  0
ENDBLK
  5
377E
  8
0
  0
BLOCK
  8
0
  2
*U154
 70
     1
 10
0.0
 20
0.0
 30
0.0
  3
*U154
  1

  0
TEXT
  5
4296
  8
标注
 10
140492.75477304429
 20
-71384.523738156
 30
0.0
 40
16.0
  1
766
  0
ENDBLK
  5
4298
  8
0
  0
BLOCK
  8
0
  2
*D155
 70
     1
 10
0.0
 20
0.0
 30
0.0
  3
*D155
  1

  0
LINE
  5
3781
  8
标注
 10
140926.69435520051
 20
-70914.839826189447
 30
0.0
 11
140972.030841108
 21
-70914.839826189447
 31
0.0
  0
LINE
  5
3782
  8
标注
 10
140926.69435520051
 20
-71325.239826189456
 30
0.0
 11
140972.030841108
 21
-71325.239826189456
 31
0.0
  0
LINE
  5
3783
  8
标注
 10
140964.030841108
 20
-70930.839826189447
 30
0.0
 11
140964.030841108
 21
-71084.395381745009
 31
0.0
  0
LINE
  5
3784
  8
标注
 10
140964.030841108
 20
-71309.239826189456
 30
0.0
 11
140964.030841108
 21
-71155.684270633923
 31
0.0
  0
SOLID
  5
3785
  8
标注
 10
140961.3641744412
 20
-70930.839826189447
 30
0.0
 11
140966.6975077746
 21
-70930.839826189447
 31
0.0
 12
140964.030841108
 22
-70914.839826189447
 32
0.0
 13
140964.030841108
 23
-70914.839826189447
 33
0.0
  0
SOLID
  5
3786
  8
标注
 10
140961.3641744412
 20
-71309.239826189456
 30
0.0
 11
140966.6975077746
 21
-71309.239826189456
 31
0.0
 12
140964.030841108
 22
-71325.239826189456
 32
0.0
 13
140964.030841108
 23
-71325.239826189456
 33
0.0
  0
INSERT
  5
3787
  8
标注
  2
*U156
 10
0.0
 20
0.0
 30
0.0
  0
POINT
  5
3788
  8
DEFPOINTS
 62
     0
 10
140906.69435520051
 20
-70914.839826189447
 30
0.0
  0
POINT
  5
3789
  8
DEFPOINTS
 62
     0
 10
140906.69435520051
 20
-71325.239826189456
 30
0.0
  0
POINT
  5
378A
  8
DEFPOINTS
 62
     0
 10
140964.030841108
 20
-71325.239826189456
 30
0.0
  0
ENDBLK
  5
378B
  8
0
  0
BLOCK
  8
0
  2
*U156
 70
     1
 10
0.0
 20
0.0
 30
0.0
  3
*U156
  1

  0
TEXT
  5
429A
  8
标注
 10
140970.6975077746
 20
-71149.373159522758
 30
0.0
 40
16.0
  1
410,4
 50
90.0
  0
ENDBLK
  5
429C
  8
0
  0
BLOCK
  8
0
  2
A$C516C6EE4
 70
     0
 10
0.0
 20
0.0
 30
0.0
  3
A$C516C6EE4
  1

  0
LINE
  5
378D
  8
0
 10
812.80003412335645
 20
840.98482483766566
 30
0.0
 11
0.0000341233680956
 21
840.98482483766566
 31
0.0
  0
LINE
  5
378E
  8
0
 10
393.70003412332147
 20
866.38482483771793
 30
0.0
 11
25.400034123333182
 21
866.38482483771793
 31
0.0
  0
LINE
  5
378F
  8
0
 10
25.400034123333182
 20
1272.784824837785
 30
0.0
 11
393.70003412332147
 21
1272.784824837712
 31
0.0
  0
LINE
  5
3790
  8
0
 10
396.70003412332159
 20
1715.8781562786171
 30
0.0
 11
22.400034123333171
 21
1715.878156278646
 31
0.0
  0
LINE
  5
3791
  8
0
 10
25.387534123379741
 20
1117.540836842046
 30
0.0
 11
25.387534123379741
 21
1117.540836842046
 31
0.0
  0
INSERT
  5
3792
  8
标注
  2
*U158
 10
0.0
 20
0.0
 30
0.0
  0
CIRCLE
  5
3793
  8
细实线
 10
209.5500341233564
 20
1157.7848248377411
 30
0.0
 40
55.0
  0
LINE
  5
3794
  8
中心线
 10
209.5500341233564
 20
1281.1119929337731
 30
0.0
 11
209.5500341233564
 21
854.10666354231932
 31
0.0
  0
CIRCLE
  5
3795
  8
0
 10
209.5500341233564
 20
1157.7848248377411
 30
0.0
 40
45.499999999999993
  0
LINE
  5
3796
  8
中心线
 10
311.11684337834589
 20
1157.7848248377411
 30
0.0
 11
110.2800839834963
 21
1157.7848248377411
 31
0.0
  0
LINE
  5
3797
  8
0
 10
0.0000341233389918
 20
1298.1848248377351
 30
0.0
 11
812.80003412335645
 21
1298.1848248377351
 31
0.0
  0
LINE
  5
3798
  8
0
 10
25.400034123333182
 20
1272.78482483777
 30
0.0
 11
160.35487958672451
 21
1188.5067513743561
 31
0.0
  0
LINE
  5
3799
  8
0
 10
393.70003412332147
 20
866.38482483771793
 30
0.0
 11
240.53460400333279
 21
1108.7546664722031
 31
0.0
  0
LINE
  5
379A
  8
0
 10
258.74518865993008
 20
1188.506751374312
 30
0.0
 11
393.70003412332147
 21
1272.784824837712
 31
0.0
  0
LINE
  5
379B
  8
0
 10
178.56546424329281
 20
1108.7546664722031
 30
0.0
 11
25.400034123333182
 21
866.38482483771793
 31
0.0
  0
DIMENSION
  5
379C
  8
标注线
  2
*D135
 10
869.90086722775595
 20
1272.78482483777
 30
0.0
 11
869.90086722775595
 21
1373.407047059969
 31
0.0
 12
-140117.2113033394
 22
71388.181238683042
 32
0.0
 70
   128
  3
副本STANDARD
 13
812.83753412333294
 23
1298.1848248377351
 33
0.0
 14
787.40003412336227
 24
1272.78482483777
 34
0.0
 50
90.0
  0
DIMENSION
  5
379D
  8
标注线
  2
*D145
 10
252.39176479483919
 20
1173.10918822029
 30
0.0
 11
164.3779016187348
 21
1141.626883447052
 31
0.0
 12
-140117.2113033394
 22
71388.181238683042
 32
0.0
 70
     3
  3
副本STANDARD
 15
166.7083034519591
 25
1142.460461455222
 35
0.0
 40
0.0
  0
DIMENSION
  5
37A0
  8
标注线
  2
*D147
 10
251.5536289938839
 20
1197.781049883818
 30
0.0
 11
165.59713449068491
 21
1115.932453140749
 31
0.0
 12
-140117.2113033394
 22
71388.181238683042
 32
0.0
 70
     3
  3
副本STANDARD
 15
167.5464392526421
 25
1117.7885997915971
 35
0.0
 40
0.0
  0
DIMENSION
  5
37A3
  8
标注线
  2
*D137
 10
25.400034123333182
 20
786.55076893921046
 30
0.0
 11
209.55003412332729
 21
786.55076893921046
 31
0.0
 12
-140117.2113033394
 22
71388.181238683042
 32
0.0
  3
副本STANDARD
 13
393.70003412332147
 23
866.38482483771793
 33
0.0
 14
25.400034123333182
 24
866.38482483771793
 34
0.0
  0
DIMENSION
  5
37A4
  8
标注线
  2
*D139
 10
812.80003412335645
 20
729.3676431983331
 30
0.0
 11
406.40003412336222
 21
729.3676431983331
 31
0.0
 12
-140117.2113033394
 22
71388.181238683042
 32
0.0
  3
副本STANDARD
 13
0.0000341233680956
 23
840.98482483766566
 33
0.0
 14
812.80003412335645
 24
840.98482483769453
 34
0.0
  0
LINE
  5
37A5
  8
0
 10
25.400034123333182
 20
1272.78482483777
 30
0.0
 11
25.400034123333182
 21
866.38482483771793
 31
0.0
  0
LINE
  5
37A6
  8
0
 10
393.70003412332147
 20
1272.784824837712
 30
0.0
 11
393.70003412332147
 21
866.38482483771793
 31
0.0
  0
LINE
  5
37A7
  8
0
 10
0.0000341233389918
 20
1298.1848248377351
 30
0.0
 11
0.0000341233680956
 21
840.98482483766566
 31
0.0
  0
LINE
  5
37A8
  8
0
 10
419.10003412334481
 20
866.38482483771793
 30
0.0
 11
787.40003412333294
 21
866.38482483771793
 31
0.0
  0
LINE
  5
37A9
  8
0
 10
787.40003412336227
 20
1272.784824837785
 30
0.0
 11
419.10003412334481
 21
1272.784824837712
 31
0.0
  0
LINE
  5
37AA
  8
0
 10
787.4125341233447
 20
1117.540836842046
 30
0.0
 11
787.4125341233447
 21
1117.540836842046
 31
0.0
  0
INSERT
  5
37AB
  8
标注
  2
*U159
 10
0.0
 20
0.0
 30
0.0
  0
CIRCLE
  5
37AC
  8
细实线
 10
603.2500341233681
 20
1157.7848248377411
 30
0.0
 40
55.0
  0
LINE
  5
37AD
  8
中心线
 10
603.2500341233681
 20
1281.1119929337731
 30
0.0
 11
603.25003412333876
 21
855.36696226395713
 31
0.0
  0
CIRCLE
  5
37AE
  8
0
 10
603.2500341233681
 20
1157.7848248377411
 30
0.0
 40
45.499999999999993
  0
LINE
  5
37AF
  8
中心线
 10
501.68322486832011
 20
1157.7848248377411
 30
0.0
 11
702.51998426317004
 21
1157.7848248377411
 31
0.0
  0
DIMENSION
  5
37B0
  8
标注线
  2
*D141
 10
787.40003412333294
 20
786.55076893921046
 30
0.0
 11
603.25003412333876
 21
786.55076893921046
 31
0.0
 12
-140117.2113033394
 22
71388.181238683042
 32
0.0
  3
副本STANDARD
 13
419.10003412334481
 23
866.38482483771793
 33
0.0
 14
787.40003412333294
 24
866.38482483768905
 34
0.0
 50
180.0
  0
LINE
  5
37B1
  8
0
 10
787.40003412336227
 20
1272.78482483777
 30
0.0
 11
787.40003412333294
 21
866.38482483771793
 31
0.0
  0
LINE
  5
37B2
  8
0
 10
419.10003412334481
 20
1272.784824837712
 30
0.0
 11
419.10003412334481
 21
866.38482483771793
 31
0.0
  0
LINE
  5
37B3
  8
0
 10
812.80003412335645
 20
1298.1848248377351
 30
0.0
 11
812.80003412335645
 21
840.98482483766566
 31
0.0
  0
LINE
  5
37B4
  8
0
 10
393.6875341233681
 20
1715.878156278646
 30
0.0
 11
393.70003412332147
 21
1715.878156278646
 31
0.0
  0
LINE
  5
37B5
  8
中心线
 10
406.40003412333311
 20
1724.2053243746479
 30
0.0
 11
406.40003412333311
 21
1436.834832024105
 31
0.0
  0
LINE
  5
37B6
  8
中心线
 10
406.40003412333311
 20
1312.40333029248
 30
0.0
 11
406.40003412333311
 21
830.44525156747818
 31
0.0
  0
DIMENSION
  5
37B7
  8
标注线
  2
*D149
 10
419.10003412334481
 20
1091.6947309210759
 30
0.0
 11
480.87781190115481
 21
1091.6947309210759
 31
0.0
 12
-140117.2113033394
 22
71388.181238683042
 32
0.0
 70
   128
  3
副本STANDARD
 13
393.70003412332147
 23
1040.385603079844
 33
0.0
 14
419.10003412334481
 24
1040.385603079844
 34
0.0
  0
LINE
  5
37BA
  8
截面层
 10
0.0000341233680956
 20
1715.878156278646
 30
0.0
 11
22.400034123333171
 21
1715.8781562786171
 31
0.0
  0
LINE
  5
37BB
  8
截面层
 10
25.400034123333182
 20
1712.8781562786171
 30
0.0
 11
25.400034123333182
 21
1465.353011025421
 31
0.0
  0
LINE
  5
37BC
  8
截面层
 10
26.78515820499161
 20
1463.857416319835
 30
0.0
 11
149.69593215774509
 21
1459.878156278646
 31
0.0
  0
LINE
  5
37BD
  8
截面层
 10
393.70003412337968
 20
1465.353011025654
 30
0.0
 11
393.70003412332147
 21
1712.8781562786171
 31
0.0
  0
LINE
  5
37BE
  8
截面层
 10
396.70003412332159
 20
1715.8781562786171
 30
0.0
 11
416.1000341232866
 21
1715.878156278588
 31
0.0
  0
LINE
  5
37BF
  8
0
 10
151.55003412332721
 20
1459.878156278646
 30
0.0
 11
267.55003412332741
 21
1459.878156278646
 31
0.0
  0
LINE
  5
37C0
  8
细实线
 10
269.40412283234758
 20
1459.8781562786171
 30
0.0
 11
149.69593215774509
 21
1459.878156278646
 31
0.0
  0
LINE
  5
37C1
  8
中心线
 10
209.55003412332729
 20
1437.476940882407
 30
0.0
 11
209.5500341233564
 21
1522.393033213142
 31
0.0
  0
ARC
  5
37C2
  8
截面层
 10
149.69593215733769
 20
1456.878156278646
 30
0.0
 40
3.0
 50
26.565051065216899
 51
89.999999991662364
  0
ARC
  5
37C3
  8
截面层
 10
269.40413608934608
 20
1456.878156278646
 30
0.0
 40
3.0
 50
90.000000005002576
 51
153.4349486752653
  0
ARC
  5
37C4
  8
截面层
 10
155.47708510633669
 20
1455.378156278646
 30
0.0
 40
1.5
 50
206.5650516468946
 51
269.99999994830671
  0
ARC
  5
37C5
  8
截面层
 10
263.62298314034712
 20
1455.378156278646
 30
0.0
 40
1.5
 50
270.00000005002568
 51
333.43494777291932
  0
LINE
  5
37C6
  8
截面层
 10
264.96462392655673
 20
1454.70733588592
 30
0.0
 11
266.7208545163449
 21
1458.2197970654961
 31
0.0
  0
LINE
  5
37C7
  8
截面层
 10
155.47708510633669
 20
1453.878156278646
 30
0.0
 11
164.5500341233564
 21
1453.878156278646
 31
0.0
  0
LINE
  5
37C8
  8
截面层
 10
254.55003412335651
 20
1452.378156278646
 30
0.0
 11
254.55003412332741
 21
1453.878156278646
 31
0.0
  0
LINE
  5
37C9
  8
截面层
 10
154.1354443201561
 20
1454.70733588592
 30
0.0
 11
152.3792137303389
 21
1458.2197970654961
 31
0.0
  0
LINE
  5
37CA
  8
截面层
 10
164.55003412332721
 20
1452.378156278646
 30
0.0
 11
164.55003412332721
 21
1453.878156278646
 31
0.0
  0
LINE
  5
37CB
  8
截面层
 10
254.55003412332741
 20
1453.878156278646
 30
0.0
 11
263.62298314034712
 21
1453.878156278646
 31
0.0
  0
LINE
  5
37CC
  8
0
  6
CONTINUOUS
 10
164.55003412332721
 20
1453.878156278646
 30
0.0
 11
254.55003412332741
 21
1453.878156278646
 31
0.0
  0
LINE
  5
37CD
  8
截面层
 10
152.79380353365559
 20
1454.036515492669
 30
0.0
 11
151.03757294383831
 21
1457.548976672246
 31
0.0
  0
ARC
  5
37CE
  8
截面层
 10
149.69593215733769
 20
1456.878156278646
 30
0.0
 40
1.5
 50
26.565051065216899
 51
89.999999991662364
  0
LINE
  5
37CF
  8
截面层
 10
26.671342797228139
 20
1462.336846722872
 30
0.0
 11
149.69593215774509
 21
1458.378156278646
 31
0.0
  0
ARC
  5
37D0
  8
截面层
 10
155.47708510633669
 20
1455.378156278646
 30
0.0
 40
3.0
 50
206.5650516468946
 51
269.99999994830671
  0
LINE
  5
37D1
  8
截面层
 10
155.47708510633669
 20
1452.378156278646
 30
0.0
 11
164.5500341233564
 21
1452.378156278646
 31
0.0
  0
LINE
  5
37D2
  8
0
  6
CONTINUOUS
 10
164.55003412332721
 20
1452.378156278646
 30
0.0
 11
254.55003412332741
 21
1452.378156278646
 31
0.0
  0
LINE
  5
37D3
  8
截面层
 10
254.55003412335651
 20
1452.378156278646
 30
0.0
 11
263.62298314034712
 21
1452.378156278646
 31
0.0
  0
ARC
  5
37D4
  8
截面层
 10
263.62298314034712
 20
1455.378156278646
 30
0.0
 40
3.0
 50
270.00000005002568
 51
333.43494777291932
  0
LINE
  5
37D5
  8
截面层
 10
266.30626471305732
 20
1454.036515492669
 30
0.0
 11
268.06249530284538
 21
1457.548976672246
 31
0.0
  0
ARC
  5
37D6
  8
截面层
 10
269.40413608934608
 20
1456.878156278646
 30
0.0
 40
1.5
 50
90.000000005002576
 51
153.4349486752653
  0
LINE
  5
37D7
  8
截面层
 10
395.20003412337979
 20
1465.3281174024889
 30
0.0
 11
395.20003412332147
 21
1712.8781562786171
 31
0.0
  0
LINE
  5
37D8
  8
截面层
 10
396.70003412332159
 20
1714.378156278588
 30
0.0
 11
416.1000341232866
 21
1714.378156278588
 31
0.0
  0
LINE
  5
37D9
  8
截面层
 10
0.0000341233680956
 20
1714.378156278646
 30
0.0
 11
22.400034123333171
 21
1714.378156278588
 31
0.0
  0
LINE
  5
37DA
  8
截面层
 10
23.900034123333171
 20
1712.8781562786171
 30
0.0
 11
23.900034123333171
 21
1465.3281174022561
 31
0.0
  0
LINE
  5
37DB
  8
截面层
 10
0.0000341233680956
 20
1715.878156278646
 30
0.0
 11
0.0000341233680956
 21
1714.378156278646
 31
0.0
  0
ARC
  5
37DC
  8
截面层
 10
22.400034123333171
 20
1712.8781562786171
 30
0.0
 40
3.0
 50
0.0
 51
90.0
  0
ARC
  5
37DD
  8
截面层
 10
396.70003412332159
 20
1712.8781562786171
 30
0.0
 40
3.0
 50
90.0
 51
180.0
  0
ARC
  5
37DE
  8
截面层
 10
396.70003412332159
 20
1712.8781562786171
 30
0.0
 40
1.5
 50
90.0
 51
180.0
  0
ARC
  5
37DF
  8
截面层
 10
22.400034123333171
 20
1712.8781562786171
 30
0.0
 40
1.5
 50
0.0
 51
90.0
  0
ARC
  5
37E0
  8
截面层
 10
26.900034123333182
 20
1465.353011025421
 30
0.0
 40
1.5
 50
180.0
 51
269.03142660782891
  0
ARC
  5
37E1
  8
截面层
 10
26.900034123333182
 20
1465.3281174022561
 30
0.0
 40
3.0
 50
180.0
 51
269.0363134224508
  0
LINE
  5
37E2
  8
截面层
 10
392.22539010780753
 20
1463.853225349623
 30
0.0
 11
269.40413608899689
 21
1459.8781562786751
 31
0.0
  0
LINE
  5
37E3
  8
截面层
 10
392.25049025559571
 20
1462.328541736046
 30
0.0
 11
269.40413608899689
 21
1458.3781562786751
 31
0.0
  0
ARC
  5
37E4
  8
截面层
 10
392.2000341234089
 20
1465.353011025654
 30
0.0
 40
1.5
 50
270.96857339217098
 51
0.0
  0
ARC
  5
37E5
  8
截面层
 10
392.2000341234089
 20
1465.3281174024889
 30
0.0
 40
3.0
 50
270.96368657754931
 51
0.0
  0
DIMENSION
  5
37E6
  8
标注线
  2
*D143
 10
680.90658184950007
 20
1461.865690814011
 30
0.0
 11
680.90658184950007
 21
1563.4719235463999
 31
0.0
 12
-140117.2113033394
 22
71388.181238683042
 32
0.0
 70
   128
  3
副本STANDARD
 13
812.80003412335645
 23
1715.878156278646
 33
0.0
 14
695.93976309834375
 24
1461.865690814011
 34
0.0
 50
90.0
  0
LINE
  5
37E7
  8
截面层
 10
419.10003412328638
 20
1712.8781562785589
 30
0.0
 11
419.10003412328638
 21
1465.353011025654
 31
0.0
  0
LINE
  5
37E8
  8
截面层
 10
417.6000341232866
 20
1712.8781562785589
 30
0.0
 11
417.60003412325727
 21
1465.3281174024889
 31
0.0
  0
ARC
  5
37E9
  8
截面层
 10
416.1000341232866
 20
1712.8781562785589
 30
0.0
 40
3.0
 50
0.0
 51
90.0
  0
ARC
  5
37EA
  8
截面层
 10
416.1000341232866
 20
1712.8781562785589
 30
0.0
 40
1.5
 50
0.0
 51
90.0
  0
LINE
  5
37EB
  8
0
 10
416.1000341232866
 20
1715.8781562786171
 30
0.0
 11
790.40003412333317
 21
1715.878156278646
 31
0.0
  0
LINE
  5
37EC
  8
截面层
 10
812.80003412335645
 20
1715.878156278646
 30
0.0
 11
790.40003412333317
 21
1715.8781562786171
 31
0.0
  0
LINE
  5
37ED
  8
截面层
 10
787.40003412333294
 20
1712.8781562786171
 30
0.0
 11
787.40003412336227
 21
1465.353011025421
 31
0.0
  0
LINE
  5
37EE
  8
截面层
 10
785.92539010776068
 20
1463.85322534939
 30
0.0
 11
663.10413608895033
 21
1459.878156278646
 31
0.0
  0
LINE
  5
37EF
  8
0
 10
661.2500341233681
 20
1459.878156278646
 30
0.0
 11
545.25003412336798
 21
1459.878156278646
 31
0.0
  0
LINE
  5
37F0
  8
细实线
 10
543.39594541434781
 20
1459.8781562786171
 30
0.0
 11
663.10413608895033
 21
1459.878156278646
 31
0.0
  0
LINE
  5
37F1
  8
中心线
 10
603.2500341233681
 20
1437.476940882407
 30
0.0
 11
603.25003412333876
 21
1522.393033213142
 31
0.0
  0
ARC
  5
37F2
  8
截面层
 10
663.10413608935755
 20
1456.878156278646
 30
0.0
 40
3.0
 50
90.000000008337636
 51
153.43494893478311
  0
ARC
  5
37F3
  8
截面层
 10
543.39593215734919
 20
1456.878156278646
 30
0.0
 40
3.0
 50
26.565051324734611
 51
89.999999994997424
  0
ARC
  5
37F4
  8
截面层
 10
657.3229831403587
 20
1455.378156278646
 30
0.0
 40
1.5
 50
270.00000005002568
 51
333.43494835310543
  0
ARC
  5
37F5
  8
截面层
 10
549.17708510634839
 20
1455.378156278646
 30
0.0
 40
1.5
 50
206.56505222708071
 51
269.99999994830671
  0
LINE
  5
37F6
  8
截面层
 10
547.83544432013866
 20
1454.70733588592
 30
0.0
 11
546.07921373035049
 21
1458.2197970654961
 31
0.0
  0
LINE
  5
37F7
  8
截面层
 10
657.3229831403587
 20
1453.878156278646
 30
0.0
 11
648.25003412333888
 21
1453.878156278646
 31
0.0
  0
LINE
  5
37F8
  8
截面层
 10
558.25003412333876
 20
1452.378156278646
 30
0.0
 11
558.25003412336787
 21
1453.878156278646
 31
0.0
  0
LINE
  5
37F9
  8
截面层
 10
658.66462392653921
 20
1454.70733588592
 30
0.0
 11
660.42085451635626
 21
1458.2197970654961
 31
0.0
  0
LINE
  5
37FA
  8
截面层
 10
648.2500341233681
 20
1452.378156278646
 30
0.0
 11
648.2500341233681
 21
1453.878156278646
 31
0.0
  0
LINE
  5
37FB
  8
截面层
 10
558.25003412336787
 20
1453.878156278646
 30
0.0
 11
549.17708510634839
 21
1453.878156278646
 31
0.0
  0
LINE
  5
37FC
  8
0
  6
CONTINUOUS
 10
648.2500341233681
 20
1453.878156278646
 30
0.0
 11
558.25003412336787
 21
1453.878156278646
 31
0.0
  0
LINE
  5
37FD
  8
截面层
 10
660.00626471303985
 20
1454.036515492669
 30
0.0
 11
661.76249530285713
 21
1457.548976672246
 31
0.0
  0
ARC
  5
37FE
  8
截面层
 10
663.10413608935755
 20
1456.878156278646
 30
0.0
 40
1.5
 50
90.000000008337636
 51
153.43494893478311
  0
LINE
  5
37FF
  8
截面层
 10
785.9504902555783
 20
1462.3285417358129
 30
0.0
 11
663.10413608895033
 21
1458.378156278646
 31
0.0
  0
ARC
  5
3800
  8
截面层
 10
657.3229831403587
 20
1455.378156278646
 30
0.0
 40
3.0
 50
270.00000005002568
 51
333.43494835310543
  0
LINE
  5
3801
  8
截面层
 10
657.3229831403587
 20
1452.378156278646
 30
0.0
 11
648.25003412333888
 21
1452.378156278646
 31
0.0
  0
LINE
  5
3802
  8
0
  6
CONTINUOUS
 10
648.2500341233681
 20
1452.378156278646
 30
0.0
 11
558.25003412336787
 21
1452.378156278646
 31
0.0
  0
LINE
  5
3803
  8
截面层
 10
558.25003412333876
 20
1452.378156278646
 30
0.0
 11
549.17708510634839
 21
1452.378156278646
 31
0.0
  0
ARC
  5
3804
  8
截面层
 10
549.17708510634839
 20
1455.378156278646
 30
0.0
 40
3.0
 50
206.56505222708071
 51
269.99999994830671
  0
LINE
  5
3805
  8
截面层
 10
546.49380353363813
 20
1454.036515492669
 30
0.0
 11
544.73757294384995
 21
1457.548976672246
 31
0.0
  0
ARC
  5
3806
  8
截面层
 10
543.39593215734919
 20
1456.878156278646
 30
0.0
 40
1.5
 50
26.565051324734611
 51
89.999999994997424
  0
LINE
  5
3807
  8
截面层
 10
812.80003412335645
 20
1714.378156278646
 30
0.0
 11
790.40003412333317
 21
1714.378156278588
 31
0.0
  0
LINE
  5
3808
  8
截面层
 10
788.90003412333294
 20
1712.8781562786171
 30
0.0
 11
788.90003412339138
 21
1465.3281174022561
 31
0.0
  0
LINE
  5
3809
  8
截面层
 10
812.80003412335645
 20
1715.878156278646
 30
0.0
 11
812.80003412335645
 21
1714.378156278646
 31
0.0
  0
ARC
  5
380A
  8
截面层
 10
790.40003412333317
 20
1712.8781562786171
 30
0.0
 40
3.0
 50
90.0
 51
180.0
  0
ARC
  5
380B
  8
截面层
 10
790.40003412333317
 20
1712.8781562786171
 30
0.0
 40
1.5
 50
90.0
 51
180.0
  0
ARC
  5
380C
  8
截面层
 10
785.90003412336205
 20
1465.353011025421
 30
0.0
 40
1.5
 50
270.96857339217098
 51
0.0
  0
ARC
  5
380D
  8
截面层
 10
785.90003412339126
 20
1465.3281174022561
 30
0.0
 40
3.0
 50
270.96368657754931
 51
0.0
  0
LINE
  5
380E
  8
截面层
 10
420.57467813888798
 20
1463.853225349623
 30
0.0
 11
543.39593215769855
 21
1459.8781562786751
 31
0.0
  0
LINE
  5
380F
  8
截面层
 10
420.54957799107052
 20
1462.328541736046
 30
0.0
 11
543.39593215769855
 21
1458.3781562786751
 31
0.0
  0
ARC
  5
3810
  8
截面层
 10
420.6000341232866
 20
1465.353011025654
 30
0.0
 40
1.5
 50
180.0
 51
269.03142660782891
  0
ARC
  5
3811
  8
截面层
 10
420.6000341232866
 20
1465.3281174024889
 30
0.0
 40
3.0
 50
180.0
 51
269.0363134224508
  0
LINE
  5
3812
  8
0
 10
787.40003412339115
 20
1272.78482483777
 30
0.0
 11
652.44518865999976
 21
1188.5067513743561
 31
0.0
  0
LINE
  5
3813
  8
0
 10
419.10003412334481
 20
866.38482483771793
 30
0.0
 11
572.26546424336254
 21
1108.7546664722031
 31
0.0
  0
LINE
  5
3814
  8
0
 10
554.0548795867652
 20
1188.5067513742979
 30
0.0
 11
419.10003412334481
 21
1272.784824837712
 31
0.0
  0
LINE
  5
3815
  8
0
 10
634.23460400337353
 20
1108.754666472159
 30
0.0
 11
787.40003412333294
 21
866.38482483771793
 31
0.0
  0
DIMENSION
  5
3816
  8
标注
  2
*D151
 10
332.42733455366999
 20
1157.7848248377411
 30
0.0
 11
332.42733455366988
 21
1118.7181581710761
 31
0.0
 12
-140117.2113033394
 22
71388.181238683042
 32
0.0
 70
   128
  3
副本STANDARD
 13
318.98901618891119
 23
1272.784824837727
 33
0.0
 14
311.11684337833719
 24
1157.7848248377411
 34
0.0
 50
90.0
1001
ACAD
1000
DSTYLE
1002
{
1070
    49
1040
2.0
1002
}
  0
LINE
  5
3819
  8
0
 10
789.48305186108337
 20
62.94141249358654
 30
0.0
 11
789.48305186108337
 21
473.34141249358078
 31
0.0
  0
LINE
  5
381A
  8
0
 10
23.483051861083371
 20
473.34141249358078
 30
0.0
 11
23.483051861083371
 21
62.94141249358654
 31
0.0
  0
LINE
  5
381B
  8
0
 10
23.483051861083371
 20
62.94141249358654
 30
0.0
 11
789.48305186108337
 21
62.94141249358654
 31
0.0
  0
LINE
  5
381C
  8
0
 10
789.48305186108337
 20
473.34141249358078
 30
0.0
 11
23.483051861083371
 21
473.34141249358078
 31
0.0
  0
DIMENSION
  5
381D
  8
标注
  2
*D153
 10
789.48305186108337
 20
11.65750052705698
 30
0.0
 11
396.87680303814699
 21
11.65750052705698
 31
0.0
 12
-140117.2113033394
 22
71388.181238683042
 32
0.0
 70
   128
  3
副本STANDARD
 13
23.483051861083371
 23
62.94141249358654
 33
0.0
 14
789.48305186108337
 24
62.94141249358654
 34
0.0
  0
DIMENSION
  5
3820
  8
标注
  2
*D155
 10
846.81953776851844
 20
62.941412493586533
 30
0.0
 11
846.81953776851844
 21
268.14141249358369
 31
0.0
 12
-140117.2113033394
 22
71388.181238683042
 32
0.0
  3
副本STANDARD
 13
789.48305186108337
 23
473.34141249358078
 33
0.0
 14
789.48305186108337
 24
62.94141249358654
 34
0.0
 50
90.0
  0
ENDBLK
  5
3826
  8
0
  0
BLOCK
  8
0
  2
*U158
 70
     1
 10
0.0
 20
0.0
 30
0.0
  3
*U158
  1

  0
CIRCLE
  5
429E
  8
0
 10
209.5500341232983
 20
1157.7848248377411
 30
0.0
 40
58.0
  0
ENDBLK
  5
42A0
  8
0
  0
BLOCK
  8
0
  2
*U159
 70
     1
 10
0.0
 20
0.0
 30
0.0
  3
*U159
  1

  0
CIRCLE
  5
42A2
  8
0
 10
603.2500341233972
 20
1157.7848248377411
 30
0.0
 40
58.0
  0
ENDBLK
  5
42A4
  8
0
  0
BLOCK
  8
0
  2
*D160
 70
     1
 10
0.0
 20
0.0
 30
0.0
  3
*D160
  1

  0
LINE
  5
3A42
  8
标注
  6
BYBLOCK
 10
661.90668283938805
 20
145.80650861486259
 30
0.0
 11
661.90668283938805
 21
144.7143337218688
 31
0.0
  0
LINE
  5
3A43
  8
标注
  6
BYBLOCK
 10
676.40668283932985
 20
145.80650861486259
 30
0.0
 11
676.40668283932985
 21
144.7143337218688
 31
0.0
  0
LINE
  5
3A44
  8
标注
  6
BYBLOCK
 10
662.55668283938815
 20
145.03433372186879
 30
0.0
 11
667.11501617269244
 21
145.03433372186879
 31
0.0
  0
LINE
  5
3A45
  8
标注
  6
BYBLOCK
 10
675.75668283932998
 20
145.03433372186879
 30
0.0
 11
671.19834950602547
 21
145.03433372186879
 31
0.0
  0
SOLID
  5
3A46
  8
标注
 10
662.55668283938815
 20
145.1426670552022
 30
0.0
 11
662.55668283938815
 21
144.9260003885355
 31
0.0
 12
661.90668283938805
 22
145.03433372186879
 32
0.0
 13
661.90668283938805
 23
145.03433372186879
 33
0.0
  0
SOLID
  5
3A47
  8
标注
 10
675.75668283932998
 20
145.1426670552022
 30
0.0
 11
675.75668283932998
 21
144.9260003885355
 31
0.0
 12
676.40668283932985
 22
145.03433372186879
 32
0.0
 13
676.40668283932985
 23
145.03433372186879
 33
0.0
  0
INSERT
  5
3A48
  8
标注
  2
*U161
 10
0.0
 20
0.0
 30
0.0
  0
POINT
  5
3A49
  8
DEFPOINTS
 62
     0
 10
661.90668283938805
 20
146.68650861486259
 30
0.0
  0
POINT
  5
3A4A
  8
DEFPOINTS
 62
     0
 10
676.40668283932985
 20
146.68650861486259
 30
0.0
  0
POINT
  5
3A4B
  8
DEFPOINTS
 62
     0
 10
676.40668283932985
 20
145.03433372186879
 30
0.0
  0
ENDBLK
  5
3935
  8
0
  0
BLOCK
  8
0
  2
*U161
 70
     1
 10
0.0
 20
0.0
 30
0.0
  3
*U161
  1

  0
TEXT
  5
42CE
  8
标注
 10
667.31501617269225
 20
144.7093337218688
 30
0.0
 40
0.65
  1
14 1/2"
  0
ENDBLK
  5
42D0
  8
0
  0
BLOCK
  8
0
  2
*D162
 70
     1
 10
0.0
 20
0.0
 30
0.0
  3
*D162
  1

  0
LINE
  5
3A4C
  8
标注
  6
BYBLOCK
 10
677.40668283932996
 20
145.80650861486259
 30
0.0
 11
677.40668283932996
 21
144.7143337218688
 31
0.0
  0
LINE
  5
3A4D
  8
标注
  6
BYBLOCK
 10
691.90668283927175
 20
145.80650861486259
 30
0.0
 11
691.90668283927175
 21
144.7143337218688
 31
0.0
  0
LINE
  5
3A4E
  8
标注
  6
BYBLOCK
 10
678.05668283932994
 20
145.03433372186879
 30
0.0
 11
682.61501617263423
 21
145.03433372186879
 31
0.0
  0
LINE
  5
3A4F
  8
标注
  6
BYBLOCK
 10
691.25668283927166
 20
145.03433372186879
 30
0.0
 11
686.69834950596749
 21
145.03433372186879
 31
0.0
  0
SOLID
  5
3A50
  8
标注
 10
678.05668283932994
 20
145.1426670552022
 30
0.0
 11
678.05668283932994
 21
144.9260003885355
 31
0.0
 12
677.40668283932996
 22
145.03433372186879
 32
0.0
 13
677.40668283932996
 23
145.03433372186879
 33
0.0
  0
SOLID
  5
3A51
  8
标注
 10
691.25668283927166
 20
145.1426670552022
 30
0.0
 11
691.25668283927166
 21
144.9260003885355
 31
0.0
 12
691.90668283927175
 22
145.03433372186879
 32
0.0
 13
691.90668283927175
 23
145.03433372186879
 33
0.0
  0
INSERT
  5
3A52
  8
标注
  2
*U163
 10
0.0
 20
0.0
 30
0.0
  0
POINT
  5
3A53
  8
DEFPOINTS
 62
     0
 10
677.40668283932996
 20
146.68650861486259
 30
0.0
  0
POINT
  5
3A54
  8
DEFPOINTS
 62
     0
 10
691.90668283927175
 20
146.68650861486259
 30
0.0
  0
POINT
  5
3A55
  8
DEFPOINTS
 62
     0
 10
691.90668283927175
 20
145.03433372186879
 30
0.0
  0
ENDBLK
  5
394F
  8
0
  0
BLOCK
  8
0
  2
*U163
 70
     1
 10
0.0
 20
0.0
 30
0.0
  3
*U163
  1

  0
TEXT
  5
42D2
  8
标注
 10
682.81501617263405
 20
144.7093337218688
 30
0.0
 40
0.65
  1
14 1/2"
  0
ENDBLK
  5
42D4
  8
0
  0
BLOCK
  8
0
  2
*D164
 70
     1
 10
0.0
 20
0.0
 30
0.0
  3
*D164
  1

  0
LINE
  5
3A64
  8
标注
  6
BYBLOCK
 10
660.90668283938805
 20
145.80650861486259
 30
0.0
 11
660.90668283938805
 21
143.07982218896581
 31
0.0
  0
LINE
  5
3A65
  8
标注
  6
BYBLOCK
 10
692.90668283927175
 20
145.80650861486259
 30
0.0
 11
692.90668283927175
 21
143.07982218896581
 31
0.0
  0
LINE
  5
3A66
  8
标注
  6
BYBLOCK
 10
661.55668283938815
 20
143.39982218896591
 30
0.0
 11
675.94834950599636
 21
143.39982218896591
 31
0.0
  0
LINE
  5
3A67
  8
标注
  6
BYBLOCK
 10
692.25668283927155
 20
143.39982218896591
 30
0.0
 11
677.8650161726631
 21
143.39982218896591
 31
0.0
  0
SOLID
  5
3A68
  8
标注
 10
661.55668283938815
 20
143.50815552229921
 30
0.0
 11
661.55668283938815
 21
143.29148885563259
 31
0.0
 12
660.90668283938805
 22
143.39982218896591
 32
0.0
 13
660.90668283938805
 23
143.39982218896591
 33
0.0
  0
SOLID
  5
3A69
  8
标注
 10
692.25668283927155
 20
143.50815552229921
 30
0.0
 11
692.25668283927155
 21
143.29148885563259
 31
0.0
 12
692.90668283927175
 22
143.39982218896591
 32
0.0
 13
692.90668283927175
 23
143.39982218896591
 33
0.0
  0
INSERT
  5
3A6A
  8
标注
  2
*U165
 10
0.0
 20
0.0
 30
0.0
  0
POINT
  5
3A6B
  8
DEFPOINTS
 62
     0
 10
660.90668283938805
 20
146.68650861486259
 30
0.0
  0
POINT
  5
3A6C
  8
DEFPOINTS
 62
     0
 10
692.90668283927175
 20
146.68650861486259
 30
0.0
  0
POINT
  5
3A6D
  8
DEFPOINTS
 62
     0
 10
692.90668283927175
 20
143.39982218896591
 30
0.0
  0
ENDBLK
  5
3969
  8
0
  0
BLOCK
  8
0
  2
*U165
 70
     1
 10
0.0
 20
0.0
 30
0.0
  3
*U165
  1

  0
TEXT
  5
42D6
  8
标注
 10
676.14834950599663
 20
143.0748221889659
 30
0.0
 40
0.65
  1
32"
  0
ENDBLK
  5
42D8
  8
0
  0
BLOCK
  8
0
  2
*D166
 70
     1
 10
0.0
 20
0.0
 30
0.0
  3
*D166
  1

  0
LINE
  5
39FC
  8
标注
  6
BYBLOCK
 10
693.78668283927175
 20
147.68650861486259
 30
0.0
 11
694.68474674885726
 21
147.68650861486259
 31
0.0
  0
LINE
  5
39FD
  8
标注
  6
BYBLOCK
 10
693.78668283927175
 20
163.68650861480441
 30
0.0
 11
694.68474674885726
 21
163.68650861480441
 31
0.0
  0
LINE
  5
39FE
  8
标注
  6
BYBLOCK
 10
694.36474674885721
 20
148.33650861486259
 30
0.0
 11
694.36474674885721
 21
154.83650861483341
 31
0.0
  0
LINE
  5
39FF
  8
标注
  6
BYBLOCK
 10
694.36474674885721
 20
163.0365086148044
 30
0.0
 11
694.36474674885721
 21
156.53650861483351
 31
0.0
  0
SOLID
  5
3A00
  8
标注
 10
694.25641341552364
 20
148.33650861486259
 30
0.0
 11
694.47308008219045
 21
148.33650861486259
 31
0.0
 12
694.36474674885721
 22
147.68650861486259
 32
0.0
 13
694.36474674885721
 23
147.68650861486259
 33
0.0
  0
SOLID
  5
3A01
  8
标注
 10
694.25641341552364
 20
163.0365086148044
 30
0.0
 11
694.47308008219045
 21
163.0365086148044
 31
0.0
 12
694.36474674885721
 22
163.68650861480441
 32
0.0
 13
694.36474674885721
 23
163.68650861480441
 33
0.0
  0
INSERT
  5
3A02
  8
标注
  2
*U167
 10
0.0
 20
0.0
 30
0.0
  0
POINT
  5
3A03
  8
DEFPOINTS
 62
     0
 10
692.90668283927175
 20
147.68650861486259
 30
0.0
  0
POINT
  5
3A04
  8
DEFPOINTS
 62
     0
 10
692.90668283927175
 20
163.68650861480441
 30
0.0
  0
POINT
  5
3A05
  8
DEFPOINTS
 62
     0
 10
694.36474674885721
 20
163.68650861480441
 30
0.0
  0
ENDBLK
  5
3983
  8
0
  0
BLOCK
  8
0
  2
*U167
 70
     1
 10
0.0
 20
0.0
 30
0.0
  3
*U167
  1

  0
TEXT
  5
42CA
  8
标注
 10
694.68974674885726
 20
155.03650861483359
 30
0.0
 40
0.65
  1
16"
 50
90.0
  0
ENDBLK
  5
42CC
  8
0
  0
BLOCK
  8
0
  2
*D168
 70
     1
 10
0.0
 20
0.0
 30
0.0
  3
*D168
  1

  0
LINE
  5
39A9
  8
标注
  6
BYBLOCK
 10
693.78668283927175
 20
146.68650861486259
 30
0.0
 11
696.06714021884807
 21
146.68650861486259
 31
0.0
  0
LINE
  5
39AA
  8
标注
  6
BYBLOCK
 10
693.78668283927175
 20
164.68650861480441
 30
0.0
 11
696.06714021884807
 21
164.68650861480441
 31
0.0
  0
LINE
  5
39AB
  8
标注
  6
BYBLOCK
 10
695.74714021884802
 20
147.33650861486259
 30
0.0
 11
695.74714021884802
 21
154.83650861483341
 31
0.0
  0
LINE
  5
39AC
  8
标注
  6
BYBLOCK
 10
695.74714021884802
 20
164.0365086148044
 30
0.0
 11
695.74714021884802
 21
156.53650861483351
 31
0.0
  0
SOLID
  5
39AD
  8
标注
 10
695.63880688551455
 20
147.33650861486259
 30
0.0
 11
695.85547355218125
 21
147.33650861486259
 31
0.0
 12
695.74714021884802
 22
146.68650861486259
 32
0.0
 13
695.74714021884802
 23
146.68650861486259
 33
0.0
  0
SOLID
  5
39AE
  8
标注
 10
695.63880688551455
 20
164.0365086148044
 30
0.0
 11
695.85547355218125
 21
164.0365086148044
 31
0.0
 12
695.74714021884802
 22
164.68650861480441
 32
0.0
 13
695.74714021884802
 23
164.68650861480441
 33
0.0
  0
INSERT
  5
39AF
  8
标注
  2
*U169
 10
0.0
 20
0.0
 30
0.0
  0
POINT
  5
39B0
  8
DEFPOINTS
 62
     0
 10
692.90668283927175
 20
146.68650861486259
 30
0.0
  0
POINT
  5
39B1
  8
DEFPOINTS
 62
     0
 10
692.90668283927175
 20
164.68650861480441
 30
0.0
  0
POINT
  5
39B2
  8
DEFPOINTS
 62
     0
 10
695.74714021884802
 20
164.68650861480441
 30
0.0
  0
ENDBLK
  5
399D
  8
0
  0
BLOCK
  8
0
  2
*U169
 70
     1
 10
0.0
 20
0.0
 30
0.0
  3
*U169
  1

  0
TEXT
  5
42BE
  8
标注
 10
696.07214021884795
 20
155.03650861483359
 30
0.0
 40
0.65
  1
18"
 50
90.0
  0
ENDBLK
  5
42C0
  8
0
  0
BLOCK
  8
0
  2
*D170
 70
     1
 10
0.0
 20
0.0
 30
0.0
  3
*D170
  1

  0
LINE
  5
39C3
  8
标注
  6
BYBLOCK
 10
661.83121109678564
 20
115.17487820774009
 30
0.0
 11
661.83121109678564
 21
113.138839752058
 31
0.0
  0
LINE
  5
39C4
  8
标注
  6
BYBLOCK
 10
691.98869141162515
 20
115.17487820774009
 30
0.0
 11
691.98869141162515
 21
113.138839752058
 31
0.0
  0
LINE
  5
39C5
  8
标注
  6
BYBLOCK
 10
662.48121109678561
 20
113.458839752058
 30
0.0
 11
674.81411792087215
 21
113.458839752058
 31
0.0
  0
LINE
  5
39C6
  8
标注
  6
BYBLOCK
 10
691.33869141162518
 20
113.458839752058
 30
0.0
 11
679.00578458753876
 21
113.458839752058
 31
0.0
  0
SOLID
  5
39C7
  8
标注
 10
662.48121109678561
 20
113.5671730853914
 30
0.0
 11
662.48121109678561
 21
113.35050641872471
 31
0.0
 12
661.83121109678564
 22
113.458839752058
 32
0.0
 13
661.83121109678564
 23
113.458839752058
 33
0.0
  0
SOLID
  5
39C8
  8
标注
 10
691.33869141162518
 20
113.5671730853914
 30
0.0
 11
691.33869141162518
 21
113.35050641872471
 31
0.0
 12
691.98869141162515
 22
113.458839752058
 32
0.0
 13
691.98869141162515
 23
113.458839752058
 33
0.0
  0
INSERT
  5
39C9
  8
标注
  2
*U171
 10
0.0
 20
0.0
 30
0.0
  0
POINT
  5
39CA
  8
DEFPOINTS
 62
     0
 10
661.83121109678564
 20
116.0548782077401
 30
0.0
  0
POINT
  5
39CB
  8
DEFPOINTS
 62
     0
 10
691.98869141162515
 20
116.0548782077401
 30
0.0
  0
POINT
  5
39CC
  8
DEFPOINTS
 62
     0
 10
691.98869141162515
 20
113.458839752058
 30
0.0
  0
ENDBLK
  5
39B7
  8
0
  0
BLOCK
  8
0
  2
*U171
 70
     1
 10
0.0
 20
0.0
 30
0.0
  3
*U171
  1

  0
TEXT
  5
42C2
  8
标注
 10
675.01411792087197
 20
113.13383975205799
 30
0.0
 40
0.65
  1
30 1/8"
  0
ENDBLK
  5
42C4
  8
0
  0
BLOCK
  8
0
  2
*D172
 70
     1
 10
0.0
 20
0.0
 30
0.0
  3
*D172
  1

  0
LINE
  5
39DD
  8
标注
  6
BYBLOCK
 10
692.86869141162515
 20
116.0548782077401
 30
0.0
 11
694.55599198518723
 21
116.0548782077401
 31
0.0
  0
LINE
  5
39DE
  8
标注
  6
BYBLOCK
 10
692.86869141162515
 20
132.212358522638
 30
0.0
 11
694.55599198518723
 21
132.212358522638
 31
0.0
  0
LINE
  5
39DF
  8
标注
  6
BYBLOCK
 10
694.23599198518696
 20
116.70487820774009
 30
0.0
 11
694.23599198518696
 21
122.09195169852239
 31
0.0
  0
LINE
  5
39E0
  8
标注
  6
BYBLOCK
 10
694.23599198518696
 20
131.56235852263799
 30
0.0
 11
694.23599198518696
 21
126.17528503185569
 31
0.0
  0
SOLID
  5
39E1
  8
标注
 10
694.12765865185384
 20
116.70487820774009
 30
0.0
 11
694.34432531852053
 21
116.70487820774009
 31
0.0
 12
694.23599198518696
 22
116.0548782077401
 32
0.0
 13
694.23599198518696
 23
116.0548782077401
 33
0.0
  0
SOLID
  5
39E2
  8
标注
 10
694.12765865185384
 20
131.56235852263799
 30
0.0
 11
694.34432531852053
 21
131.56235852263799
 31
0.0
 12
694.23599198518696
 22
132.212358522638
 32
0.0
 13
694.23599198518696
 23
132.212358522638
 33
0.0
  0
INSERT
  5
39E3
  8
标注
  2
*U173
 10
0.0
 20
0.0
 30
0.0
  0
POINT
  5
39E4
  8
DEFPOINTS
 62
     0
 10
691.98869141162515
 20
116.0548782077401
 30
0.0
  0
POINT
  5
39E5
  8
DEFPOINTS
 62
     0
 10
691.98869141162515
 20
132.212358522638
 30
0.0
  0
POINT
  5
39E6
  8
DEFPOINTS
 62
     0
 10
694.23599198518696
 20
132.212358522638
 30
0.0
  0
ENDBLK
  5
39D1
  8
0
  0
BLOCK
  8
0
  2
*U173
 70
     1
 10
0.0
 20
0.0
 30
0.0
  3
*U173
  1

  0
TEXT
  5
42C6
  8
标注
 10
694.56099198518712
 20
122.2919516985225
 30
0.0
 40
0.65
  1
16 1/8"
 50
90.0
  0
ENDBLK
  5
42C8
  8
0
  0
BLOCK
  8
0
  2
*D174
 70
     1
 10
0.0
 20
0.0
 30
0.0
  3
*D174
  1

  0
LINE
  5
3E20
  8
标注
  6
BYBLOCK
 10
693.78668283927175
 20
184.2064202007094
 30
0.0
 11
694.91940951758386
 21
184.2064202007094
 31
0.0
  0
LINE
  5
3E21
  8
标注
  6
BYBLOCK
 10
693.21211070062031
 20
174.2009573841394
 30
0.0
 11
694.91940951758386
 21
174.2009573841394
 31
0.0
  0
LINE
  5
3E22
  8
标注
  6
BYBLOCK
 10
694.59940951758392
 20
183.55642020070951
 30
0.0
 11
694.59940951758392
 21
179.99952212575781
 31
0.0
  0
LINE
  5
3E23
  8
标注
  6
BYBLOCK
 10
694.59940951758392
 20
174.85095738413941
 30
0.0
 11
694.59940951758392
 21
178.40785545909111
 31
0.0
  0
SOLID
  5
3E24
  8
标注
 10
694.49107618425035
 20
183.55642020070951
 30
0.0
 11
694.70774285091716
 21
183.55642020070951
 31
0.0
 12
694.59940951758392
 22
184.2064202007094
 32
0.0
 13
694.59940951758392
 23
184.2064202007094
 33
0.0
  0
SOLID
  5
3E25
  8
标注
 10
694.49107618425035
 20
174.85095738413941
 30
0.0
 11
694.70774285091716
 21
174.85095738413941
 31
0.0
 12
694.59940951758392
 22
174.2009573841394
 32
0.0
 13
694.59940951758392
 23
174.2009573841394
 33
0.0
  0
INSERT
  5
3E26
  8
标注
  2
*U175
 10
0.0
 20
0.0
 30
0.0
  0
POINT
  5
3E27
  8
DEFPOINTS
 62
     0
 10
692.90668283927175
 20
184.2064202007094
 30
0.0
  0
POINT
  5
3E28
  8
DEFPOINTS
 62
     0
 10
692.33211070061998
 20
174.2009573841394
 30
0.0
  0
POINT
  5
3E29
  8
DEFPOINTS
 62
     0
 10
694.59940951758392
 20
174.2009573841394
 30
0.0
  0
ENDBLK
  5
3DFF
  8
0
  0
BLOCK
  8
0
  2
*U175
 70
     1
 10
0.0
 20
0.0
 30
0.0
  3
*U175
  1

  0
TEXT
  5
42DA
  8
标注
 10
694.92440951758363
 20
178.60785545909121
 30
0.0
 40
0.65
  1
10"
 50
90.0
  0
ENDBLK
  5
42DC
  8
0
  0
BLOCK
  8
0
  2
*D176
 70
     1
 10
0.0
 20
0.0
 30
0.0
  3
*D176
  1

  0
LINE
  5
3E3A
  8
标注
  6
BYBLOCK
 10
660.02668283938806
 20
184.2064202007094
 30
0.0
 11
658.89395616107595
 21
184.2064202007094
 31
0.0
  0
LINE
  5
3E3B
  8
标注
  6
BYBLOCK
 10
660.60125497803961
 20
174.2009573841394
 30
0.0
 11
658.89395616107595
 21
174.2009573841394
 31
0.0
  0
LINE
  5
3E3C
  8
标注
  6
BYBLOCK
 10
659.213956161076
 20
183.55642020070951
 30
0.0
 11
659.213956161076
 21
179.99952212575781
 31
0.0
  0
LINE
  5
3E3D
  8
标注
  6
BYBLOCK
 10
659.213956161076
 20
174.85095738413941
 30
0.0
 11
659.213956161076
 21
178.40785545909111
 31
0.0
  0
SOLID
  5
3E3E
  8
标注
 10
659.10562282774276
 20
183.55642020070951
 30
0.0
 11
659.32228949440935
 21
183.55642020070951
 31
0.0
 12
659.213956161076
 22
184.2064202007094
 32
0.0
 13
659.213956161076
 23
184.2064202007094
 33
0.0
  0
SOLID
  5
3E3F
  8
标注
 10
659.10562282774276
 20
174.85095738413941
 30
0.0
 11
659.32228949440935
 21
174.85095738413941
 31
0.0
 12
659.213956161076
 22
174.2009573841394
 32
0.0
 13
659.213956161076
 23
174.2009573841394
 33
0.0
  0
INSERT
  5
3E40
  8
标注
  2
*U177
 10
0.0
 20
0.0
 30
0.0
  0
POINT
  5
3E41
  8
DEFPOINTS
 62
     0
 10
660.90668283938805
 20
184.2064202007094
 30
0.0
  0
POINT
  5
3E42
  8
DEFPOINTS
 62
     0
 10
661.4812549780396
 20
174.2009573841394
 30
0.0
  0
POINT
  5
3E43
  8
DEFPOINTS
 62
     0
 10
659.213956161076
 20
174.2009573841394
 30
0.0
  0
ENDBLK
  5
3E2F
  8
0
  0
BLOCK
  8
0
  2
*U177
 70
     1
 10
0.0
 20
0.0
 30
0.0
  3
*U177
  1

  0
TEXT
  5
42DE
  8
标注
 10
659.53895616107593
 20
178.60785545909121
 30
0.0
 40
0.65
  1
10"
 50
90.0
  0
ENDBLK
  5
42E0
  8
0
  0
BLOCK
  8
0
  2
*U178
 70
     1
 10
0.0
 20
0.0
 30
0.0
  3
*U178
  1

  0
TEXT
  5
4189
  8
标注
 10
7.665406168108972
 20
0.2986209613956193
 30
0.0
 40
0.7874015748031497
  1
 CUTOUT
  0
ENDBLK
  5
418B
  8
0
  0
BLOCK
  8
0
  2
*U179
 70
     1
 10
0.0
 20
0.0
 30
0.0
  3
*U179
  1

  0
CIRCLE
  5
41A5
  8
细实线
 10
15.57357386466537
 20
44.542067371650766
 30
0.0
 40
2.2834645669200002
  0
ENDBLK
  5
41A7
  8
0
  0
BLOCK
  8
0
  2
*U180
 70
     1
 10
0.0
 20
0.0
 30
0.0
  3
*U180
  1

  0
CIRCLE
  5
41EE
  8
0
 10
15.00001792055264
 20
43.050394246733049
 30
0.0
 40
2.2834645669200002
  0
ENDBLK
  5
41F0
  8
0
  0
BLOCK
  8
0
  2
*U181
 70
     1
 10
0.0
 20
0.0
 30
0.0
  3
*U181
  1

  0
CIRCLE
  5
4246
  8
0
 10
15.00001792055264
 20
43.050394246733049
 30
0.0
 40
2.2834645669200002
  0
ENDBLK
  5
4248
  8
0
  0
BLOCK
  8
0
  2
*U182
 70
     1
 10
0.0
 20
0.0
 30
0.0
  3
*U182
  1

  0
TEXT
  5
426A
  8
标注
 10
679.25233822757377
 20
110.55631449045769
 30
0.0
 40
0.7874015748031497
  1
 CUTOUT
  0
ENDBLK
  5
426C
  8
0
  0
BLOCK
  8
0
  2
*U183
 70
     1
 10
0.0
 20
0.0
 30
0.0
  3
*U183
  1

  0
CIRCLE
  5
42A6
  8
0
 10
8.2499738150509074
 20
43.10403961021801
 30
0.0
 40
2.2834645669200002
  0
ENDBLK
  5
42A8
  8
0
  0
BLOCK
  8
0
  2
*U184
 70
     1
 10
0.0
 20
0.0
 30
0.0
  3
*U184
  1

  0
CIRCLE
  5
42AA
  8
0
 10
23.7499738149927
 20
43.10403961021801
 30
0.0
 40
2.2834645669200002
  0
ENDBLK
  5
42AC
  8
0
  0
BLOCK
  8
0
  2
*U185
 70
     1
 10
0.0
 20
0.0
 30
0.0
  3
*U185
  1

  0
CIRCLE
  5
42AE
  8
0
 10
669.15668283935895
 20
159.1589495597016
 30
0.0
 40
2.2834645669200002
  0
ENDBLK
  5
42B0
  8
0
  0
BLOCK
  8
0
  2
*U186
 70
     1
 10
0.0
 20
0.0
 30
0.0
  3
*U186
  1

  0
CIRCLE
  5
42B2
  8
0
 10
684.65668283930086
 20
159.1589495597016
 30
0.0
 40
2.2834645669200002
  0
ENDBLK
  5
42B4
  8
0
  0
BLOCK
  8
0
  2
*U187
 70
     1
 10
0.0
 20
0.0
 30
0.0
  3
*U187
  1

  0
TEXT
  5
42B6
  8
标注
 10
672.60680440608473
 20
140.26836691018951
 30
0.0
 40
0.7874015748031497
  1
OVERHEAD VIEW
  0
ENDBLK
  5
42B8
  8
0
  0
BLOCK
  8
0
  2
*U188
 70
     1
 10
0.0
 20
0.0
 30
0.0
  3
*U188
  1

  0
TEXT
  5
42BA
  8
标注
 10
674.0261182477567
 20
170.90440874115669
 30
0.0
 40
0.7874015748031497
  1
FRONT VIEW
  0
ENDBLK
  5
42BC
  8
0
  0
BLOCK
  8
0
  2
*U189
 70
     1
 10
0.0
 20
0.0
 30
0.0
  3
*U189
  1

  0
CIRCLE
  5
42E2
  8
0
 10
8.250038368452806
 20
45.62081769655196
 30
0.0
 40
2.2834645669200002
  0
ENDBLK
  5
42E4
  8
0
  0
BLOCK
  8
0
  2
*U190
 70
     1
 10
0.0
 20
0.0
 30
0.0
  3
*U190
  1

  0
CIRCLE
  5
42E6
  8
0
 10
23.750038368394609
 20
45.62081769655196
 30
0.0
 40
2.2834645669200002
  0
ENDBLK
  5
42E8
  8
0
  0
BLOCK
  8
0
  2
*U191
 70
     1
 10
0.0
 20
0.0
 30
0.0
  3
*U191
  1

  0
CIRCLE
  5
42EA
  8
0
 10
718.66152934564343
 20
159.52526289575499
 30
0.0
 40
2.2834645669200002
  0
ENDBLK
  5
42EC
  8
0
  0
BLOCK
  8
0
  2
*U192
 70
     1
 10
0.0
 20
0.0
 30
0.0
  3
*U192
  1

  0
CIRCLE
  5
42EE
  8
0
 10
734.16152934558522
 20
159.52526289575499
 30
0.0
 40
2.2834645669200002
  0
ENDBLK
  5
42F0
  8
0
  0
BLOCK
  8
0
  2
*D194
 70
     1
 10
0.0
 20
0.0
 30
0.0
  3
*D194
  1

  0
LINE
  5
4720
  8
标注
 10
711.40314569743532
 20
113.0244394194151
 30
0.0
 11
711.40314569743532
 21
110.75971141387051
 31
0.0
  0
LINE
  5
4721
  8
标注
 10
741.56062601227495
 20
113.0244394194151
 30
0.0
 11
741.56062601227495
 21
110.75971141387051
 31
0.0
  0
LINE
  5
4722
  8
标注
 10
712.0531456974353
 20
111.0797114138705
 30
0.0
 11
724.38605252152183
 21
111.0797114138705
 31
0.0
  0
LINE
  5
4723
  8
标注
 10
740.91062601227486
 20
111.0797114138705
 30
0.0
 11
728.57771918818844
 21
111.0797114138705
 31
0.0
  0
SOLID
  5
4724
  8
标注
 10
712.0531456974353
 20
111.1880447472038
 30
0.0
 11
712.0531456974353
 21
110.97137808053709
 31
0.0
 12
711.40314569743532
 22
111.0797114138705
 32
0.0
 13
711.40314569743532
 23
111.0797114138705
 33
0.0
  0
SOLID
  5
4725
  8
标注
 10
740.91062601227486
 20
111.1880447472038
 30
0.0
 11
740.91062601227486
 21
110.97137808053709
 31
0.0
 12
741.56062601227495
 22
111.0797114138705
 32
0.0
 13
741.56062601227495
 23
111.0797114138705
 33
0.0
  0
TEXT
  8
标注
  40
0.65
  5
474A
  72
0
  71
0
 10
725.182
 20
109.929
 30
0.000000
  1
30 1/8"
  0
POINT
  5
4727
  8
DEFPOINTS
 62
     0
 10
711.40314569743532
 20
113.9044394194151
 30
0.0
  0
POINT
  5
4728
  8
DEFPOINTS
 62
     0
 10
741.56062601227495
 20
113.9044394194151
 30
0.0
  0
POINT
  5
4729
  8
DEFPOINTS
 62
     0
 10
741.56062601227495
 20
111.0797114138705
 30
0.0
  0
ENDBLK
  5
45C5
  8
0
  0
BLOCK
  8
0
  2
*D195
 70
     1
 10
0.0
 20
0.0
 30
0.0
  3
*D195
  1

  0
LINE
  5
45DE
  8
标注
 10
742.44062601227495
 20
113.9044394194151
 30
0.0
 11
744.30394412434885
 21
113.9044394194151
 31
0.0
  0
LINE
  5
45DF
  8
标注
 10
742.44062601227495
 20
130.06191973430569
 30
0.0
 11
744.30394412434885
 21
130.06191973430569
 31
0.0
  0
LINE
  5
45E0
  8
标注
 10
743.9839441243488
 20
114.5544394194151
 30
0.0
 11
743.9839441243488
 21
119.94151291019369
 31
0.0
  0
LINE
  5
45E1
  8
标注
 10
743.9839441243488
 20
129.41191973430571
 30
0.0
 11
743.9839441243488
 21
124.02484624352699
 31
0.0
  0
SOLID
  5
45E2
  8
标注
 10
743.87561079101556
 20
114.5544394194151
 30
0.0
 11
744.09227745768214
 21
114.5544394194151
 31
0.0
 12
743.9839441243488
 22
113.9044394194151
 32
0.0
 13
743.9839441243488
 23
113.9044394194151
 33
0.0
  0
SOLID
  5
45E3
  8
标注
 10
743.87561079101556
 20
129.41191973430571
 30
0.0
 11
744.09227745768214
 21
129.41191973430571
 31
0.0
 12
743.9839441243488
 22
130.06191973430569
 32
0.0
 13
743.9839441243488
 23
130.06191973430569
 33
0.0
  0
INSERT
  5
45E4
  8
标注
  2
*U204
 10
0.0
 20
0.0
 30
0.0
  0
POINT
  5
45E5
  8
DEFPOINTS
 62
     0
 10
741.56062601227495
 20
113.9044394194151
 30
0.0
  0
POINT
  5
45E6
  8
DEFPOINTS
 62
     0
 10
741.56062601227495
 20
130.06191973430569
 30
0.0
  0
POINT
  5
45E7
  8
DEFPOINTS
 62
     0
 10
743.9839441243488
 20
130.06191973430569
 30
0.0
  0
ENDBLK
  5
45DD
  8
0
  0
BLOCK
  8
0
  2
*D196
 70
     1
 10
0.0
 20
0.0
 30
0.0
  3
*D196
  1

  0
LINE
  5
464A
  8
标注
 10
711.41152934567265
 20
147.1728219509159
 30
0.0
 11
711.41152934567265
 21
145.0607701398589
 31
0.0
  0
LINE
  5
464B
  8
标注
 10
725.91152934561433
 20
147.1728219509159
 30
0.0
 11
725.91152934561433
 21
145.0607701398589
 31
0.0
  0
LINE
  5
464C
  8
标注
 10
712.06152934567274
 20
145.3807701398589
 30
0.0
 11
716.61986267897692
 21
145.3807701398589
 31
0.0
  0
LINE
  5
464D
  8
标注
 10
725.26152934561435
 20
145.3807701398589
 30
0.0
 11
720.70319601231006
 21
145.3807701398589
 31
0.0
  0
SOLID
  5
464E
  8
标注
 10
712.06152934567274
 20
145.4891034731923
 30
0.0
 11
712.06152934567274
 21
145.2724368065256
 31
0.0
 12
711.41152934567265
 22
145.3807701398589
 32
0.0
 13
711.41152934567265
 23
145.3807701398589
 33
0.0
  0
SOLID
  5
464F
  8
标注
 10
725.26152934561435
 20
145.4891034731923
 30
0.0
 11
725.26152934561435
 21
145.2724368065256
 31
0.0
 12
725.91152934561433
 22
145.3807701398589
 32
0.0
 13
725.91152934561433
 23
145.3807701398589
 33
0.0
  0
INSERT
  5
4650
  8
标注
  2
*U205
 10
0.0
 20
0.0
 30
0.0
  0
POINT
  5
4651
  8
DEFPOINTS
 62
     0
 10
711.41152934567265
 20
148.0528219509159
 30
0.0
  0
POINT
  5
4652
  8
DEFPOINTS
 62
     0
 10
725.91152934561433
 20
148.0528219509159
 30
0.0
  0
POINT
  5
4653
  8
DEFPOINTS
 62
     0
 10
725.91152934561433
 20
145.3807701398589
 30
0.0
  0
ENDBLK
  5
4649
  8
0
  0
BLOCK
  8
0
  2
*D197
 70
     1
 10
0.0
 20
0.0
 30
0.0
  3
*D197
  1

  0
LINE
  5
4658
  8
标注
 10
726.91152934561433
 20
147.1728219509159
 30
0.0
 11
726.91152934561433
 21
145.0568218325979
 31
0.0
  0
LINE
  5
4659
  8
标注
 10
741.41152934555623
 20
147.1728219509159
 30
0.0
 11
741.41152934555623
 21
145.0568218325979
 31
0.0
  0
LINE
  5
465A
  8
标注
 10
727.5615293456143
 20
145.3768218325979
 30
0.0
 11
732.11986267891848
 21
145.3768218325979
 31
0.0
  0
LINE
  5
465B
  8
标注
 10
740.76152934555626
 20
145.3768218325979
 30
0.0
 11
736.20319601225185
 21
145.3768218325979
 31
0.0
  0
SOLID
  5
465C
  8
标注
 10
727.5615293456143
 20
145.48515516593119
 30
0.0
 11
727.5615293456143
 21
145.26848849926449
 31
0.0
 12
726.91152934561433
 22
145.3768218325979
 32
0.0
 13
726.91152934561433
 23
145.3768218325979
 33
0.0
  0
SOLID
  5
465D
  8
标注
 10
740.76152934555626
 20
145.48515516593119
 30
0.0
 11
740.76152934555626
 21
145.26848849926449
 31
0.0
 12
741.41152934555623
 22
145.3768218325979
 32
0.0
 13
741.41152934555623
 23
145.3768218325979
 33
0.0
  0
INSERT
  5
465E
  8
标注
  2
*U206
 10
0.0
 20
0.0
 30
0.0
  0
POINT
  5
465F
  8
DEFPOINTS
 62
     0
 10
726.91152934561433
 20
148.0528219509159
 30
0.0
  0
POINT
  5
4660
  8
DEFPOINTS
 62
     0
 10
741.41152934555623
 20
148.0528219509159
 30
0.0
  0
POINT
  5
4661
  8
DEFPOINTS
 62
     0
 10
741.41152934555623
 20
145.3768218325979
 30
0.0
  0
ENDBLK
  5
4657
  8
0
  0
BLOCK
  8
0
  2
*D198
 70
     1
 10
0.0
 20
0.0
 30
0.0
  3
*D198
  1

  0
LINE
  5
4666
  8
标注
 10
710.41152934567265
 20
146.17282195091599
 30
0.0
 11
710.41152934567265
 21
143.3583514315909
 31
0.0
  0
LINE
  5
4667
  8
标注
 10
742.41152934555623
 20
146.17282195091599
 30
0.0
 11
742.41152934555623
 21
143.3583514315909
 31
0.0
  0
LINE
  5
4668
  8
标注
 10
711.06152934567274
 20
143.6783514315909
 30
0.0
 11
725.45319601228107
 21
143.6783514315909
 31
0.0
  0
LINE
  5
4669
  8
标注
 10
741.76152934555626
 20
143.6783514315909
 30
0.0
 11
727.36986267894792
 21
143.6783514315909
 31
0.0
  0
SOLID
  5
466A
  8
标注
 10
711.06152934567274
 20
143.78668476492419
 30
0.0
 11
711.06152934567274
 21
143.57001809825761
 31
0.0
 12
710.41152934567265
 22
143.6783514315909
 32
0.0
 13
710.41152934567265
 23
143.6783514315909
 33
0.0
  0
SOLID
  5
466B
  8
标注
 10
741.76152934555626
 20
143.78668476492419
 30
0.0
 11
741.76152934555626
 21
143.57001809825761
 31
0.0
 12
742.41152934555623
 22
143.6783514315909
 32
0.0
 13
742.41152934555623
 23
143.6783514315909
 33
0.0
  0
INSERT
  5
466C
  8
标注
  2
*U207
 10
0.0
 20
0.0
 30
0.0
  0
POINT
  5
466D
  8
DEFPOINTS
 62
     0
 10
710.41152934567265
 20
147.05282195091601
 30
0.0
  0
POINT
  5
466E
  8
DEFPOINTS
 62
     0
 10
742.41152934555623
 20
147.05282195091601
 30
0.0
  0
POINT
  5
466F
  8
DEFPOINTS
 62
     0
 10
742.41152934555623
 20
143.6783514315909
 30
0.0
  0
ENDBLK
  5
4665
  8
0
  0
BLOCK
  8
0
  2
*D199
 70
     1
 10
0.0
 20
0.0
 30
0.0
  3
*D199
  1

  0
LINE
  5
4674
  8
标注
 10
742.29152934555623
 20
148.0528219509159
 30
0.0
 11
744.52323726394445
 21
148.0528219509159
 31
0.0
  0
LINE
  5
4675
  8
标注
 10
742.29152934555623
 20
164.0528219508505
 30
0.0
 11
744.52323726394445
 21
164.0528219508505
 31
0.0
  0
LINE
  5
4676
  8
标注
 10
744.20323726394429
 20
148.7028219509159
 30
0.0
 11
744.20323726394429
 21
155.20282195088319
 31
0.0
  0
LINE
  5
4677
  8
标注
 10
744.20323726394429
 20
163.40282195085049
 30
0.0
 11
744.20323726394429
 21
156.90282195088321
 31
0.0
  0
SOLID
  5
4678
  8
标注
 10
744.09490393061105
 20
148.7028219509159
 30
0.0
 11
744.31157059727775
 21
148.7028219509159
 31
0.0
 12
744.20323726394429
 22
148.0528219509159
 32
0.0
 13
744.20323726394429
 23
148.0528219509159
 33
0.0
  0
SOLID
  5
4679
  8
标注
 10
744.09490393061105
 20
163.40282195085049
 30
0.0
 11
744.31157059727775
 21
163.40282195085049
 31
0.0
 12
744.20323726394429
 22
164.0528219508505
 32
0.0
 13
744.20323726394429
 23
164.0528219508505
 33
0.0
  0
INSERT
  5
467A
  8
标注
  2
*U208
 10
0.0
 20
0.0
 30
0.0
  0
POINT
  5
467B
  8
DEFPOINTS
 62
     0
 10
741.41152934555623
 20
148.0528219509159
 30
0.0
  0
POINT
  5
467C
  8
DEFPOINTS
 62
     0
 10
741.41152934555623
 20
164.0528219508505
 30
0.0
  0
POINT
  5
467D
  8
DEFPOINTS
 62
     0
 10
744.20323726394429
 20
164.0528219508505
 30
0.0
  0
ENDBLK
  5
4673
  8
0
  0
BLOCK
  8
0
  2
*D200
 70
     1
 10
0.0
 20
0.0
 30
0.0
  3
*D200
  1

  0
LINE
  5
4682
  8
标注
 10
743.29152934555623
 20
147.05282195091601
 30
0.0
 11
746.09334440968212
 21
147.05282195091601
 31
0.0
  0
LINE
  5
4683
  8
标注
 10
743.29152934555623
 20
165.0528219508505
 30
0.0
 11
746.09334440968212
 21
165.0528219508505
 31
0.0
  0
LINE
  5
4684
  8
标注
 10
745.77334440968195
 20
147.70282195091599
 30
0.0
 11
745.77334440968195
 21
155.20282195088319
 31
0.0
  0
LINE
  5
4685
  8
标注
 10
745.77334440968195
 20
164.40282195085049
 30
0.0
 11
745.77334440968195
 21
156.90282195088321
 31
0.0
  0
SOLID
  5
4686
  8
标注
 10
745.66501107634872
 20
147.70282195091599
 30
0.0
 11
745.88167774301542
 21
147.70282195091599
 31
0.0
 12
745.77334440968195
 22
147.05282195091601
 32
0.0
 13
745.77334440968195
 23
147.05282195091601
 33
0.0
  0
SOLID
  5
4687
  8
标注
 10
745.66501107634872
 20
164.40282195085049
 30
0.0
 11
745.88167774301542
 21
164.40282195085049
 31
0.0
 12
745.77334440968195
 22
165.0528219508505
 32
0.0
 13
745.77334440968195
 23
165.0528219508505
 33
0.0
  0
INSERT
  5
4688
  8
标注
  2
*U209
 10
0.0
 20
0.0
 30
0.0
  0
POINT
  5
4689
  8
DEFPOINTS
 62
     0
 10
742.41152934555623
 20
147.05282195091601
 30
0.0
  0
POINT
  5
468A
  8
DEFPOINTS
 62
     0
 10
742.41152934555623
 20
165.0528219508505
 30
0.0
  0
POINT
  5
468B
  8
DEFPOINTS
 62
     0
 10
745.77334440968195
 20
165.0528219508505
 30
0.0
  0
ENDBLK
  5
4681
  8
0
  0
BLOCK
  8
0
  2
*D201
 70
     1
 10
0.0
 20
0.0
 30
0.0
  3
*D201
  1

  0
LINE
  5
46B8
  8
标注
 10
743.29152934555623
 20
184.40065359326761
 30
0.0
 11
744.59684131206836
 21
184.40065359326761
 31
0.0
  0
LINE
  5
46B9
  8
标注
 10
743.00451203545833
 20
175.40829904884441
 30
0.0
 11
744.59684131206836
 21
175.40829904884441
 31
0.0
  0
LINE
  5
46BA
  8
标注
 10
744.27684131206843
 20
183.7506535932676
 30
0.0
 11
744.27684131206843
 21
180.53780965438941
 31
0.0
  0
LINE
  5
46BB
  8
标注
 10
744.27684131206843
 20
176.05829904884439
 30
0.0
 11
744.27684131206843
 21
179.2711429877227
 31
0.0
  0
SOLID
  5
46BC
  8
标注
 10
744.16850797873497
 20
183.7506535932676
 30
0.0
 11
744.38517464540178
 21
183.7506535932676
 31
0.0
 12
744.27684131206843
 22
184.40065359326761
 32
0.0
 13
744.27684131206843
 23
184.40065359326761
 33
0.0
  0
SOLID
  5
46BD
  8
标注
 10
744.16850797873497
 20
176.05829904884439
 30
0.0
 11
744.38517464540178
 21
176.05829904884439
 31
0.0
 12
744.27684131206843
 22
175.40829904884441
 32
0.0
 13
744.27684131206843
 23
175.40829904884441
 33
0.0
  0
INSERT
  5
46BE
  8
标注
  2
*U210
 10
0.0
 20
0.0
 30
0.0
  0
POINT
  5
46BF
  8
DEFPOINTS
 62
     0
 10
742.41152934555623
 20
184.40065359326761
 30
0.0
  0
POINT
  5
46C0
  8
DEFPOINTS
 62
     0
 10
742.12451203545834
 20
175.40829904884441
 30
0.0
  0
POINT
  5
46C1
  8
DEFPOINTS
 62
     0
 10
744.27684131206843
 20
175.40829904884441
 30
0.0
  0
ENDBLK
  5
468F
  8
0
  0
BLOCK
  8
0
  2
*D202
 70
     1
 10
0.0
 20
0.0
 30
0.0
  3
*D202
  1

  0
LINE
  5
46D0
  8
标注
 10
709.53152934567277
 20
184.40065359326761
 30
0.0
 11
708.22621737916063
 21
184.40065359326761
 31
0.0
  0
LINE
  5
46D1
  8
标注
 10
709.81854665577066
 20
175.40829904884441
 30
0.0
 11
708.22621737916063
 21
175.40829904884441
 31
0.0
  0
LINE
  5
46D2
  8
标注
 10
708.54621737916057
 20
183.7506535932676
 30
0.0
 11
708.54621737916057
 21
180.53780965438941
 31
0.0
  0
LINE
  5
46D3
  8
标注
 10
708.54621737916057
 20
176.05829904884439
 30
0.0
 11
708.54621737916057
 21
179.2711429877227
 31
0.0
  0
SOLID
  5
46D4
  8
标注
 10
708.43788404582733
 20
183.7506535932676
 30
0.0
 11
708.65455071249403
 21
183.7506535932676
 31
0.0
 12
708.54621737916057
 22
184.40065359326761
 32
0.0
 13
708.54621737916057
 23
184.40065359326761
 33
0.0
  0
SOLID
  5
46D5
  8
标注
 10
708.43788404582733
 20
176.05829904884439
 30
0.0
 11
708.65455071249403
 21
176.05829904884439
 31
0.0
 12
708.54621737916057
 22
175.40829904884441
 32
0.0
 13
708.54621737916057
 23
175.40829904884441
 33
0.0
  0
INSERT
  5
46D6
  8
标注
  2
*U211
 10
0.0
 20
0.0
 30
0.0
  0
POINT
  5
46D7
  8
DEFPOINTS
 62
     0
 10
710.41152934567288
 20
184.40065359326761
 30
0.0
  0
POINT
  5
46D8
  8
DEFPOINTS
 62
     0
 10
710.69854665577066
 20
175.40829904884441
 30
0.0
  0
POINT
  5
46D9
  8
DEFPOINTS
 62
     0
 10
708.54621737916057
 20
175.40829904884441
 30
0.0
  0
ENDBLK
  5
46C5
  8
0
  0
BLOCK
  8
0
  2
*U204
 70
     1
 10
0.0
 20
0.0
 30
0.0
  3
*U204
  1

  0
TEXT
  5
472B
  8
标注
 10
744.30894412434884
 20
120.1415129101938
 30
0.0
 40
0.65
  1
16 1/8"
 50
90.0
  0
ENDBLK
  5
472D
  8
0
  0
BLOCK
  8
0
  2
*U205
 70
     1
 10
0.0
 20
0.0
 30
0.0
  3
*U205
  1

  0
TEXT
  5
472F
  8
标注
 10
716.81986267897685
 20
145.05577013985891
 30
0.0
 40
0.65
  1
14 1/2"
  0
ENDBLK
  5
4731
  8
0
  0
BLOCK
  8
0
  2
*U206
 70
     1
 10
0.0
 20
0.0
 30
0.0
  3
*U206
  1

  0
TEXT
  5
4733
  8
标注
 10
732.31986267891853
 20
145.05182183259791
 30
0.0
 40
0.65
  1
14 1/2"
  0
ENDBLK
  5
4735
  8
0
  0
BLOCK
  8
0
  2
*U207
 70
     1
 10
0.0
 20
0.0
 30
0.0
  3
*U207
  1

  0
TEXT
  5
4737
  8
标注
 10
725.65319601228123
 20
143.35335143159091
 30
0.0
 40
0.65
  1
32"
  0
ENDBLK
  5
4739
  8
0
  0
BLOCK
  8
0
  2
*U208
 70
     1
 10
0.0
 20
0.0
 30
0.0
  3
*U208
  1

  0
TEXT
  5
473B
  8
标注
 10
744.52823726394433
 20
155.40282195088329
 30
0.0
 40
0.65
  1
16"
 50
90.0
  0
ENDBLK
  5
473D
  8
0
  0
BLOCK
  8
0
  2
*U209
 70
     1
 10
0.0
 20
0.0
 30
0.0
  3
*U209
  1

  0
TEXT
  5
473F
  8
标注
 10
746.098344409682
 20
155.40282195088329
 30
0.0
 40
0.65
  1
18"
 50
90.0
  0
ENDBLK
  5
4741
  8
0
  0
BLOCK
  8
0
  2
*U210
 70
     1
 10
0.0
 20
0.0
 30
0.0
  3
*U210
  1

  0
TEXT
  5
4743
  8
标注
 10
744.60184131206825
 20
179.4711429877228
 30
0.0
 40
0.65
  1
9"
 50
90.0
  0
ENDBLK
  5
4745
  8
0
  0
BLOCK
  8
0
  2
*U211
 70
     1
 10
0.0
 20
0.0
 30
0.0
  3
*U211
  1

  0
TEXT
  5
4747
  8
标注
 10
708.87121737916061
 20
179.4711429877228
 30
0.0
 40
0.65
  1
9"
 50
90.0
  0
ENDBLK
  5
4749
  8
0
  0
ENDSEC
  0
SECTION
  2
ENTITIES
  0
INSERT
  5
36A7
  8
标注
  2
*U182
 10
47.353248500059863
 20
-3.673685657822602
 30
0.0
  0
LINE
  5
36A8
  8
中心线
  6
CONTINUOUS
 62
     1
 10
718.94018064706688
 20
107.13583029994
 30
0.0
 11
725.15698565115076
 21
107.13583029994
 31
0.0
  0
INSERT
  5
3930
  8
标注
  2
*U187
 10
49.076109917819728
 20
0.1832912455112137
 30
0.0
  0
INSERT
  5
3931
  8
标注
  2
*U188
 10
48.622623958441302
 20
0.3440843996545482
 30
0.0
  0
LINE
  5
409A
  8
0
 10
742.41152934555623
 20
147.05282195091601
 30
0.0
 11
710.41152934567265
 21
147.05282195091601
 31
0.0
  0
LINE
  5
409B
  8
0
 10
725.91152934561433
 20
148.0528219509159
 30
0.0
 11
711.41152934567265
 21
148.0528219509159
 31
0.0
  0
LINE
  5
409C
  8
0
 10
711.41152934567265
 20
164.0528219508505
 30
0.0
 11
725.91152934561433
 21
164.0528219508505
 31
0.0
  0
LINE
  5
409D
  8
0
 10
726.02963958183125
 20
184.40065359326761
 30
0.0
 11
711.29341910945561
 21
184.40065359326761
 31
0.0
  0
LINE
  5
409E
  8
0
 10
711.41103721969023
 20
157.9408539195519
 30
0.0
 11
711.41103721969023
 21
157.9408539195519
 31
0.0
  0
INSERT
  5
409F
  8
0
  2
*U191
 10
0.0
 20
0.0
 30
0.0
  0
CIRCLE
  5
40A0
  8
0
 10
718.66152934564343
 20
159.52526289575499
 30
0.0
 40
2.1653543307000001
  0
CIRCLE
  5
40A1
  8
0
 10
718.66152934564343
 20
159.52526289575499
 30
0.0
 40
1.791338582669999
  0
LINE
  5
40A2
  8
0
 10
710.41152934567265
 20
165.0528219508505
 30
0.0
 11
742.41152934555623
 21
165.0528219508505
 31
0.0
  0
LINE
  5
40A3
  8
0
 10
711.41152934567265
 20
164.0528219508505
 30
0.0
 11
716.72471223789205
 21
160.7347875625436
 31
0.0
  0
LINE
  5
40A4
  8
0
 10
725.91152934561433
 20
148.0528219509159
 30
0.0
 11
719.88139430154285
 21
157.5949417002648
 31
0.0
  0
LINE
  5
40A5
  8
0
 10
720.59834645336582
 20
160.7347875625436
 30
0.0
 11
725.91152934561433
 21
164.0528219508505
 31
0.0
  0
LINE
  5
40A6
  8
0
 10
717.44166438974401
 20
157.5949417002648
 30
0.0
 11
711.41152934567265
 21
148.0528219509159
 31
0.0
  0
LINE
  5
40A7
  8
0
 10
711.41152934567265
 20
164.0528219508505
 30
0.0
 11
711.41152934567265
 21
148.0528219509159
 31
0.0
  0
LINE
  5
40A8
  8
0
 10
725.91152934561433
 20
164.0528219508505
 30
0.0
 11
725.91152934561433
 21
148.0528219509159
 31
0.0
  0
LINE
  5
40A9
  8
0
 10
710.41152934567265
 20
165.0528219508505
 30
0.0
 11
710.41152934567265
 21
147.05282195091601
 31
0.0
  0
LINE
  5
40AA
  8
0
 10
726.91152934561433
 20
148.0528219509159
 30
0.0
 11
741.41152934555623
 21
148.0528219509159
 31
0.0
  0
LINE
  5
40AB
  8
0
 10
741.41152934555623
 20
164.0528219508505
 30
0.0
 11
726.91152934561433
 21
164.0528219508505
 31
0.0
  0
LINE
  5
40AC
  8
0
 10
741.41202147153854
 20
157.9408539195519
 30
0.0
 11
741.41202147153854
 21
157.9408539195519
 31
0.0
  0
INSERT
  5
40AD
  8
0
  2
*U192
 10
0.0
 20
0.0
 30
0.0
  0
CIRCLE
  5
40AE
  8
0
 10
734.16152934558522
 20
159.52526289575499
 30
0.0
 40
2.1653543307000001
  0
CIRCLE
  5
40AF
  8
0
 10
734.16152934558522
 20
159.52526289575499
 30
0.0
 40
1.791338582669999
  0
LINE
  5
40B0
  8
0
 10
741.41152934555623
 20
164.0528219508505
 30
0.0
 11
741.41152934555623
 21
148.0528219509159
 31
0.0
  0
LINE
  5
40B1
  8
0
 10
726.91152934561433
 20
164.0528219508505
 30
0.0
 11
726.91152934561433
 21
148.0528219509159
 31
0.0
  0
LINE
  5
40B2
  8
0
 10
742.41152934555623
 20
165.0528219508505
 30
0.0
 11
742.41152934555623
 21
147.05282195091601
 31
0.0
  0
LINE
  5
40B3
  8
0
 10
725.91103721963179
 20
184.40065359326761
 30
0.0
 11
725.91152934561433
 21
184.40065359326761
 31
0.0
  0
LINE
  5
40B5
  8
0
 10
710.41152934567265
 20
184.40065359326761
 30
0.0
 11
711.29341910945561
 21
184.40065359326761
 31
0.0
  0
LINE
  5
40B6
  8
虚线
  6
HIDDEN
 10
711.41152934567265
 20
184.28254335705071
 30
0.0
 11
711.41152934567265
 21
175.5374588982996
 31
0.0
  0
LINE
  5
40B7
  8
虚线
  6
HIDDEN
 10
711.46606178983541
 20
175.47857721697449
 30
0.0
 11
716.30506863835205
 21
175.3219134358261
 31
0.0
  0
LINE
  5
40B8
  8
虚线
  6
HIDDEN
 10
725.91152934561433
 20
175.53745889830691
 30
0.0
 11
725.91152934561433
 21
184.28254335705071
 31
0.0
  0
LINE
  5
40B9
  8
0
 10
726.02963958183125
 20
184.40065359326761
 30
0.0
 11
726.7934191093683
 21
184.40065359326761
 31
0.0
  0
LINE
  5
40BA
  8
虚线
  6
HIDDEN
 10
716.37806477872255
 20
175.3219134358261
 30
0.0
 11
720.94499391256454
 21
175.3219134358261
 31
0.0
  0
LINE
  5
40BB
  8
虚线
  6
HIDDEN
 10
721.01798953101593
 20
175.3219134358261
 30
0.0
 11
716.30506863835205
 21
175.3219134358261
 31
0.0
  0
ARC
  5
40BC
  8
虚线
  6
HIDDEN
 10
716.30506863832318
 20
175.20380319960901
 30
0.0
 40
0.11811023622
 50
26.565051063724699
 51
90.0
  0
ARC
  5
40BD
  8
虚线
  6
HIDDEN
 10
721.01799005296391
 20
175.20380319960901
 30
0.0
 40
0.11811023622
 50
90.0
 51
153.434948671163
  0
ARC
  5
40BE
  8
虚线
  6
HIDDEN
 10
716.53267308513932
 20
175.14474808149319
 30
0.0
 40
0.05905511811
 50
206.5650516409286
 51
269.99999995831178
  0
ARC
  5
40BF
  8
虚线
  6
HIDDEN
 10
720.79038560614742
 20
175.14474808149319
 30
0.0
 40
0.05905511811
 50
270.00000004168822
 51
333.43494778149602
  0
LINE
  5
40C0
  8
虚线
  6
HIDDEN
 10
720.84320610953921
 20
175.11833782981199
 30
0.0
 11
720.91234904615146
 21
175.2566237030224
 31
0.0
  0
LINE
  5
40C1
  8
虚线
  6
HIDDEN
 10
716.53267308513932
 20
175.0856929633847
 30
0.0
 11
716.8898758023297
 21
175.0856929633847
 31
0.0
  0
LINE
  5
40C2
  8
虚线
  6
HIDDEN
 10
720.43318288892794
 20
175.02663784527621
 30
0.0
 11
720.43318288892794
 21
175.0856929633847
 31
0.0
  0
LINE
  5
40C3
  8
虚线
  6
HIDDEN
 10
716.47985258174765
 20
175.11833782981199
 30
0.0
 11
716.4107096451354
 21
175.2566237030224
 31
0.0
  0
LINE
  5
40C4
  8
虚线
  6
HIDDEN
 10
716.8898758023297
 20
175.02663784527621
 30
0.0
 11
716.8898758023297
 21
175.0856929633847
 31
0.0
  0
LINE
  5
40C5
  8
虚线
  6
HIDDEN
 10
720.43318288892794
 20
175.0856929633847
 30
0.0
 11
720.79038560614742
 21
175.0856929633847
 31
0.0
  0
LINE
  5
40C6
  8
虚线
  6
HIDDEN
 10
716.8898758023297
 20
175.0856929633847
 30
0.0
 11
720.43318288892794
 21
175.0856929633847
 31
0.0
  0
LINE
  5
40C7
  8
0
 10
716.42703207832722
 20
175.09192757810899
 30
0.0
 11
716.35788914174395
 21
175.2302134513194
 31
0.0
  0
ARC
  5
40C8
  8
0
 10
716.30506863832318
 20
175.20380319960901
 30
0.0
 40
0.05905511811
 50
26.565051063724699
 51
90.0
  0
LINE
  5
40C9
  8
0
 10
711.46158086825915
 20
175.4187122722106
 30
0.0
 11
716.30506863835205
 21
175.26285831771759
 31
0.0
  0
ARC
  5
40CA
  8
0
 10
716.53267308513932
 20
175.14474808149319
 30
0.0
 40
0.11811023622
 50
206.5650516409286
 51
269.99999995831178
  0
LINE
  5
40CB
  8
0
 10
716.53267308513932
 20
175.02663784527621
 30
0.0
 11
716.8898758023297
 21
175.02663784527621
 31
0.0
  0
LINE
  5
40CC
  8
0
 10
716.8898758023297
 20
175.02663784527621
 30
0.0
 11
720.43318288892794
 21
175.02663784527621
 31
0.0
  0
LINE
  5
40CD
  8
0
 10
720.43318288892794
 20
175.02663784527621
 30
0.0
 11
720.79038560614742
 21
175.02663784527621
 31
0.0
  0
ARC
  5
40CE
  8
0
 10
720.79038560614742
 20
175.14474808149319
 30
0.0
 40
0.11811023622
 50
270.00000004168822
 51
333.43494778149602
  0
LINE
  5
40CF
  8
0
 10
720.89602661293077
 20
175.09192757810899
 30
0.0
 11
720.96516954954325
 21
175.2302134513194
 31
0.0
  0
ARC
  5
40D0
  8
0
 10
721.01799005296391
 20
175.20380319960901
 30
0.0
 40
0.05905511811
 50
90.0
 51
153.434948671163
  0
LINE
  5
40D1
  8
0
 10
725.97058446370852
 20
175.5364788343978
 30
0.0
 11
725.97058446370852
 21
184.28254335705071
 31
0.0
  0
LINE
  5
40D2
  8
0
 10
726.02963958183125
 20
184.3415984751592
 30
0.0
 11
726.7934191093683
 21
184.3415984751592
 31
0.0
  0
LINE
  5
40D3
  8
0
 10
710.41152934567265
 20
184.3415984751592
 30
0.0
 11
711.29341910945561
 21
184.3415984751592
 31
0.0
  0
LINE
  5
40D4
  8
0
 10
711.35247422754958
 20
184.28254335705071
 30
0.0
 11
711.35247422754958
 21
175.53647883439049
 31
0.0
  0
LINE
  5
40D5
  8
0
 10
710.41152934567265
 20
184.40065359326761
 30
0.0
 11
710.41152934567265
 21
184.3415984751592
 31
0.0
  0
ARC
  5
40D6
  8
虚线
  6
HIDDEN
 10
711.29341910945561
 20
184.28254335705071
 30
0.0
 40
0.11811023622
 50
0.0
 51
90.0
  0
ARC
  5
40D7
  8
虚线
  6
HIDDEN
 10
726.02963958183125
 20
184.28254335705071
 30
0.0
 40
0.11811023622
 50
90.0
 51
180.0
  0
ARC
  5
40D8
  8
0
 10
726.02963958183125
 20
184.28254335705071
 30
0.0
 40
0.05905511811
 50
90.0
 51
180.0
  0
ARC
  5
40D9
  8
0
 10
711.29341910945561
 20
184.28254335705071
 30
0.0
 40
0.05905511811
 50
0.0
 51
90.0
  0
ARC
  5
40DA
  8
虚线
  6
HIDDEN
 10
711.4705844637665
 20
175.5374588982996
 30
0.0
 40
0.05905511811
 50
180.0
 51
269.03142659281559
  0
ARC
  5
40DB
  8
0
 10
711.4705844637665
 20
175.53647883439049
 30
0.0
 40
0.11811023622
 50
180.0
 51
269.0363134224466
  0
LINE
  5
40DC
  8
虚线
  6
HIDDEN
 10
725.8534724946096
 20
175.47841221814821
 30
0.0
 11
721.01799005293469
 21
175.3219134358261
 31
0.0
  0
LINE
  5
40DD
  8
0
 10
725.85446068938643
 20
175.41838530423061
 30
0.0
 11
721.01799005293469
 21
175.26285831771759
 31
0.0
  0
ARC
  5
40DE
  8
虚线
  6
HIDDEN
 10
725.85247422749126
 20
175.53745889830691
 30
0.0
 40
0.05905511811
 50
270.96857340718441
 51
0.0
  0
ARC
  5
40DF
  8
0
 10
725.85247422749126
 20
175.5364788343978
 30
0.0
 40
0.11811023622
 50
270.9636865775534
 51
0.0
  0
LINE
  5
40E0
  8
虚线
  6
HIDDEN
 10
726.91152934561433
 20
184.28254335704341
 30
0.0
 11
726.91152934561433
 21
175.53745889830691
 31
0.0
  0
LINE
  5
40E1
  8
0
 10
726.85247422749114
 20
184.28254335704341
 30
0.0
 11
726.85247422749114
 21
175.5364788343978
 31
0.0
  0
ARC
  5
40E2
  8
虚线
  6
HIDDEN
 10
726.7934191093683
 20
184.28254335704341
 30
0.0
 40
0.11811023622
 50
0.0
 51
90.0
  0
ARC
  5
40E3
  8
0
 10
726.7934191093683
 20
184.28254335704341
 30
0.0
 40
0.05905511811
 50
0.0
 51
90.0
  0
LINE
  5
40E4
  8
0
 10
726.7934191093683
 20
184.40065359326761
 30
0.0
 11
741.52963958177304
 21
184.40065359326761
 31
0.0
  0
LINE
  5
40E5
  8
0
 10
742.41152934555623
 20
184.40065359326761
 30
0.0
 11
741.52963958177304
 21
184.40065359326761
 31
0.0
  0
LINE
  5
40E6
  8
虚线
  6
HIDDEN
 10
741.41152934555623
 20
184.28254335705071
 30
0.0
 11
741.41152934555623
 21
175.5374588982996
 31
0.0
  0
LINE
  5
40E7
  8
虚线
  6
HIDDEN
 10
741.35347249455094
 20
175.47841221814099
 30
0.0
 11
736.51799005287637
 21
175.3219134358261
 31
0.0
  0
LINE
  5
40E8
  8
虚线
  6
HIDDEN
 10
736.44499391250622
 20
175.3219134358261
 30
0.0
 11
731.87806477866445
 21
175.3219134358261
 31
0.0
  0
LINE
  5
40E9
  8
虚线
  6
HIDDEN
 10
731.80506916018385
 20
175.3219134358261
 30
0.0
 11
736.51799005287637
 21
175.3219134358261
 31
0.0
  0
ARC
  5
40EA
  8
虚线
  6
HIDDEN
 10
736.51799005287637
 20
175.20380319960901
 30
0.0
 40
0.11811023622
 50
90.0
 51
153.4349489362753
  0
ARC
  5
40EB
  8
虚线
  6
HIDDEN
 10
731.80506863826474
 20
175.20380319960901
 30
0.0
 40
0.11811023622
 50
26.56505132883693
 51
90.0
  0
ARC
  5
40EC
  8
虚线
  6
HIDDEN
 10
736.29038560608944
 20
175.14474808149319
 30
0.0
 40
0.05905511811
 50
270.00000004168822
 51
333.43494835907143
  0
ARC
  5
40ED
  8
虚线
  6
HIDDEN
 10
732.03267308508123
 20
175.14474808149319
 30
0.0
 40
0.05905511811
 50
206.56505221850401
 51
269.99999995831178
  0
LINE
  5
40EE
  8
虚线
  6
HIDDEN
 10
731.97985258168956
 20
175.11833782981199
 30
0.0
 11
731.91070964507696
 21
175.2566237030224
 31
0.0
  0
LINE
  5
40EF
  8
虚线
  6
HIDDEN
 10
736.29038560608944
 20
175.0856929633847
 30
0.0
 11
735.93318288886974
 21
175.0856929633847
 31
0.0
  0
LINE
  5
40F0
  8
虚线
  6
HIDDEN
 10
732.3898758022716
 20
175.02663784527621
 30
0.0
 11
732.3898758022716
 21
175.0856929633847
 31
0.0
  0
LINE
  5
40F1
  8
虚线
  6
HIDDEN
 10
736.343206109481
 20
175.11833782981199
 30
0.0
 11
736.41234904609348
 21
175.2566237030224
 31
0.0
  0
LINE
  5
40F2
  8
虚线
  6
HIDDEN
 10
735.93318288886974
 20
175.02663784527621
 30
0.0
 11
735.93318288886974
 21
175.0856929633847
 31
0.0
  0
LINE
  5
40F3
  8
虚线
  6
HIDDEN
 10
732.3898758022716
 20
175.0856929633847
 30
0.0
 11
732.03267308508123
 21
175.0856929633847
 31
0.0
  0
LINE
  5
40F4
  8
虚线
  6
HIDDEN
 10
735.93318288886974
 20
175.0856929633847
 30
0.0
 11
732.3898758022716
 21
175.0856929633847
 31
0.0
  0
LINE
  5
40F5
  8
0
 10
736.39602661287233
 20
175.09192757810899
 30
0.0
 11
736.46516954948504
 21
175.2302134513194
 31
0.0
  0
ARC
  5
40F6
  8
0
 10
736.51799005287637
 20
175.20380319960901
 30
0.0
 40
0.05905511811
 50
90.0
 51
153.4349489362753
  0
LINE
  5
40F7
  8
0
 10
741.35446068932833
 20
175.418385304216
 30
0.0
 11
736.51799005287637
 21
175.26285831771759
 31
0.0
  0
ARC
  5
40F8
  8
0
 10
736.29038560608944
 20
175.14474808149319
 30
0.0
 40
0.11811023622
 50
270.00000004168822
 51
333.43494835907143
  0
LINE
  5
40F9
  8
0
 10
736.29038560608944
 20
175.02663784527621
 30
0.0
 11
735.93318288886974
 21
175.02663784527621
 31
0.0
  0
LINE
  5
40FA
  8
0
 10
735.93318288886974
 20
175.02663784527621
 30
0.0
 11
732.3898758022716
 21
175.02663784527621
 31
0.0
  0
LINE
  5
40FB
  8
0
 10
732.3898758022716
 20
175.02663784527621
 30
0.0
 11
732.03267308508123
 21
175.02663784527621
 31
0.0
  0
ARC
  5
40FC
  8
0
 10
732.03267308508123
 20
175.14474808149319
 30
0.0
 40
0.11811023622
 50
206.56505221850401
 51
269.99999995831178
  0
LINE
  5
40FD
  8
0
 10
731.92703207826901
 20
175.09192757810899
 30
0.0
 11
731.85788914165653
 21
175.2302134513194
 31
0.0
  0
ARC
  5
40FE
  8
0
 10
731.80506863826474
 20
175.20380319960901
 30
0.0
 40
0.05905511811
 50
26.56505132883693
 51
90.0
  0
LINE
  5
40FF
  8
0
 10
742.41152934555623
 20
184.3415984751592
 30
0.0
 11
741.52963958177304
 21
184.3415984751592
 31
0.0
  0
LINE
  5
4100
  8
0
 10
741.47058446364986
 20
184.28254335705071
 30
0.0
 11
741.47058446364986
 21
175.53647883439049
 31
0.0
  0
LINE
  5
4101
  8
0
 10
742.41152934555623
 20
184.40065359326761
 30
0.0
 11
742.41152934555623
 21
184.3415984751592
 31
0.0
  0
ARC
  5
4102
  8
虚线
  6
HIDDEN
 10
741.52963958177304
 20
184.28254335705071
 30
0.0
 40
0.11811023622
 50
90.0
 51
180.0
  0
ARC
  5
4103
  8
0
 10
741.52963958177304
 20
184.28254335705071
 30
0.0
 40
0.05905511811
 50
90.0
 51
180.0
  0
ARC
  5
4104
  8
虚线
  6
HIDDEN
 10
741.35247422743305
 20
175.5374588982996
 30
0.0
 40
0.05905511811
 50
270.96857340718441
 51
0.0
  0
ARC
  5
4105
  8
0
 10
741.35247422743305
 20
175.53647883439049
 30
0.0
 40
0.11811023622
 50
270.9636865775534
 51
0.0
  0
LINE
  5
4106
  8
虚线
  6
HIDDEN
 10
726.96958619661928
 20
175.47841221814821
 30
0.0
 11
731.80506863826474
 21
175.3219134358261
 31
0.0
  0
LINE
  5
4107
  8
0
 10
726.96859800181301
 20
175.41838530423061
 30
0.0
 11
731.80506863826474
 21
175.26285831771759
 31
0.0
  0
ARC
  5
4108
  8
虚线
  6
HIDDEN
 10
726.97058446370829
 20
175.53745889830691
 30
0.0
 40
0.05905511811
 50
180.0
 51
269.03142659281559
  0
ARC
  5
4109
  8
0
 10
726.97058446370829
 20
175.5364788343978
 30
0.0
 40
0.11811023622
 50
180.0
 51
269.0363134224466
  0
LINE
  5
410A
  8
0
 10
741.41152934555623
 20
164.0528219508505
 30
0.0
 11
736.0983464533075
 21
160.7347875625436
 31
0.0
  0
LINE
  5
410B
  8
0
 10
726.91152934561433
 20
148.0528219509159
 30
0.0
 11
732.94166438968568
 21
157.5949417002648
 31
0.0
  0
LINE
  5
410C
  8
0
 10
732.22471223783384
 20
160.7347875625436
 30
0.0
 11
726.91152934561433
 21
164.0528219508505
 31
0.0
  0
LINE
  5
410D
  8
0
 10
735.38139430148465
 20
157.5949417002648
 30
0.0
 11
741.41152934555623
 21
148.0528219509159
 31
0.0
  0
LINE
  5
410E
  8
中心线
  6
CONTINUOUS
 62
     1
 10
741.56062601227495
 20
113.9044394194151
 30
0.0
 11
741.56062601227495
 21
130.06191973430569
 31
0.0
  0
LINE
  5
410F
  8
中心线
  6
CONTINUOUS
 62
     1
 10
711.40314569743532
 20
130.06191973430569
 30
0.0
 11
711.40314569743532
 21
113.9044394194151
 31
0.0
  0
LINE
  5
4110
  8
中心线
  6
CONTINUOUS
 62
     1
 10
711.40314569743532
 20
113.9044394194151
 30
0.0
 11
741.56062601227495
 21
113.9044394194151
 31
0.0
  0
LINE
  5
4111
  8
中心线
  6
CONTINUOUS
 62
     1
 10
741.56062601227495
 20
130.06191973430569
 30
0.0
 11
711.40314569743532
 21
130.06191973430569
 31
0.0
  0
LINE
  5
4112
  8
0
 10
741.52963958177304
 20
184.34159847516071
 30
0.0
 11
726.7934191093683
 21
184.3415984751592
 31
0.0
  0
LINE
  5
4113
  8
0
 10
726.02963958183125
 20
184.3415984751592
 30
0.0
 11
711.29341910945561
 21
184.3415984751592
 31
0.0
  0
LINE
  5
4114
  8
0
 10
716.30506863830624
 20
175.26285831771901
 30
0.0
 11
721.01799005298062
 21
175.26285831771901
 31
0.0
  0
LINE
  5
4115
  8
0
 10
731.8050686382187
 20
175.26285831771901
 30
0.0
 11
736.51799005287637
 21
175.26285831771759
 31
0.0
  0
DIMENSION
  5
45C2
  8
标注
  2
*D194
 10
741.56062601227495
 20
111.0797114138705
 30
0.0
 11
726.48188585485514
 21
111.0797114138705
 31
0.0
 70
     0
 13
711.40314569743532
 23
113.9044394194151
 33
0.0
 14
741.56062601227495
 24
113.9044394194151
 34
0.0
1001
ACAD
1000
DSTYLE
1002
{
1070
   287
1070
     3
1070
     3
1000
"
1070
   274
1070
     2
1070
   279
1070
     0
1070
   284
1070
     0
1070
   285
1070
     0
1070
   286
1070
     0
1002
}
  0
DIMENSION
  5
45DA
  8
标注
  2
*D195
 10
743.9839441243488
 20
130.06191973430569
 30
0.0
 11
743.9839441243488
 21
121.98317957686049
 31
0.0
 70
     0
 13
741.56062601227495
 23
113.9044394194151
 33
0.0
 14
741.56062601227495
 24
130.06191973430569
 34
0.0
 50
90.0
  0
DIMENSION
  5
4646
  8
标注
  2
*D196
 10
725.91152934561433
 20
145.3807701398589
 30
0.0
 11
718.66152934564354
 21
145.3807701398589
 31
0.0
 70
     0
 13
711.41152934567265
 23
148.0528219509159
 33
0.0
 14
725.91152934561433
 24
148.0528219509159
 34
0.0
  0
DIMENSION
  5
4654
  8
标注
  2
*D197
 10
741.41152934555623
 20
145.3768218325979
 30
0.0
 11
734.16152934558522
 21
145.3768218325979
 31
0.0
 70
     0
 13
726.91152934561433
 23
148.0528219509159
 33
0.0
 14
741.41152934555623
 24
148.0528219509159
 34
0.0
  0
DIMENSION
  5
4662
  8
标注
  2
*D198
 10
742.41152934555623
 20
143.6783514315909
 30
0.0
 11
726.41152934561455
 21
143.6783514315909
 31
0.0
 70
     0
 13
710.41152934567265
 23
147.05282195091601
 33
0.0
 14
742.41152934555623
 24
147.05282195091601
 34
0.0
  0
DIMENSION
  5
4670
  8
标注
  2
*D199
 10
744.20323726394429
 20
164.0528219508505
 30
0.0
 11
744.20323726394429
 21
156.0528219508833
 31
0.0
 70
     0
 13
741.41152934555623
 23
148.0528219509159
 33
0.0
 14
741.41152934555623
 24
164.0528219508505
 34
0.0
 50
90.0
  0
DIMENSION
  5
467E
  8
标注
  2
*D200
 10
745.77334440968195
 20
165.0528219508505
 30
0.0
 11
745.77334440968195
 21
156.0528219508833
 31
0.0
 70
     0
 13
742.41152934555623
 23
147.05282195091601
 33
0.0
 14
742.41152934555623
 24
165.0528219508505
 34
0.0
 50
90.0
  0
DIMENSION
  5
468C
  8
标注
  2
*D201
 10
744.27684131206843
 20
175.40829904884441
 30
0.0
 11
744.27684131206843
 21
179.90447632105611
 31
0.0
 70
     0
 13
742.41152934555623
 23
184.40065359326761
 33
0.0
 14
742.12451203545834
 24
175.40829904884441
 34
0.0
 50
90.0
  0
DIMENSION
  5
46C2
  8
标注
  2
*D202
 10
708.54621737916057
 20
175.40829904884441
 30
0.0
 11
708.54621737916057
 21
179.90447632105611
 31
0.0
 70
     0
 13
710.41152934567288
 23
184.40065359326761
 33
0.0
 14
710.69854665577066
 24
175.40829904884441
 34
0.0
 50
90.0
  0
ENDSEC
  0
EOF
